&title=Undying Macula
&artist=Ashrount
&first=0
&des=Jian
&lv_5=14+
&inote_5=(63)
{4},,,,
{4}1>8[3:4]/8h,7h,6h,5h,4h,3h,2h,1w5b[24:1],
{24}1V36[16:1],,3,7,,5,1,,,,4,6,5V72[16:1],,7,3,,1,5,,3,,4,,5w1b[16:1],,,,,,,,,,,,
{96}1-5[32:1],28,37,46,5,,,,
{48}6-2[32:1],,3,,4-8[32:1],,7,,
{24}1bx,,6bx,,4bx,,
{16}3>5-3-7-1b[16:9]/6<4-6-2-8b[16:9],,,,,,,,,,,,,,,Ch[16:1],
{96}1,2,3,4b-6-3-7-2-8b[4:1]*>6[8:1],,,,,,,,,,,,,,,,,,,,,
{4},3hb[4:1],B7/B6/E7f,
{96}8,7,6,5b-3-6-2-7-1b[4:1]*<3[8:1],,,,,,,,,,,,,,,,,,,,,
{4},5hb[4:1],B1/B2/E2f,
{24}4,,4,B7,3,,
{48}3/8x,7,6,5,2/4,5,6,7,2/8,,,,
{24}63,,6,B3,7,,
{48}7/2x,3,4,5,8/6,5,4,3,8/2,,,,
{24}3,5,3,5,2,6,2,6,
{48}1,7,1,7,
{72}8,8,8,
{48}8x,8x,8xw4b[16:1],,,,,,,,,,,,,,,,,,,,,,,,
{96}1>8[96:7],2>8b[96:6],3<8[96:5],4<8b[96:4],5h[96:20],,,,,,,,,,,,,,,,,,,,
{96}A1f,A2,A3,A4,A5,A6,A7,A8,3x,,5x,,3,,5,,3,,2hx[32:1]/4hx[32:1],,,,,,
{48}5hx[32:1]/7hx[32:1],,46,,37,,28,,,17,,,6b,4,6,4,6,4,6,4,6,,3h[32:1],,
{24}1V35[16:1],,6,7h[32:1],8x,,1x/6x,,7,,
{48}8,7,6,5,4-8x[32:1]/3x,,2,,1-5[32:1],,7,,6-2[32:1],,5,,4x,,,,1,,,,6,,,,
{96}8<1[96:7],7<2b[96:6],6>1[96:5],5>1b[96:4],4h[96:20],,,,,,,,,,,,,,,,,,,,
{96}A8f,A7,A6,A5,A4,A3,A2,A1,6x,,4x,,6,,4,,5hx[32:1]/7hx[32:1],,,,
{48},,3x/4x,,2x/5x,,,,5x/6x,,4x/7x,,,,1hx[32:1]/2hx[32:1],,,,38,,,,7,,4,,
{16}5V71[16:1]/6hx[32:1],1,
{24}2,3,4h[32:1],52,,3,,
{48}1,2,3,4,5x/6x,,7,,18,,2,,34,,5,,
{48}3x,5,3,5,2,6,2,6,1,7,1,7,
{96}8,17,26,35,4h[16:1],,,,,,,,
{48}2h[32:1],,6b,B6f,
{24},18,7,
{48}3b-8[32:1],E4f,
{24},56,7,8,2,
{48}6-4[32:1]/3b,E3f,
{24},17,2,5,3,
{48}6b,E6f,
{24},37,28,
{96}1,28,37,46,5h[16:1],,,,,,,,
{24}7h[32:1],
{48}3b,E4f,
{24},18,2,
{48}6b-1[32:1],E6f,
{24},45,3,1,7,
{48}6b/3-5[32:1],E7f,
{24},7-1[32:1],1,6,2,
{48}3b,E4f,,,7b,E8f,,,
{96}47,36,25,1h[16:1]/4h[16:1],,,,,,,,,
{24}2,
{48}6b,E6f,,,
{48}4,5,3,,2b-6[32:1],E3f,,,3,,5,,4,5,3,,2b/5-8[32:1],B2f,,,4,,6,,3,6,2,,5b,E6,,,27,,36,,
{16}4h[8:1],,6h[8:1],,
{12}2h[12:1],7h[12:1],1h[12:1],8-2-6-4[6:1],,,,,,
{48}2b/5b,36,47,58,,,
{24}5hb[16:1]/8hb[16:1],,4,
{48}7,5,6,4,5,,3,,2,,4,,7b/8b,16,25,34,,,3hb[16:1]/4hb[16:1],,,,
{24},25,1,47,8,14,3,
{48}1b/2b,38,47,56,,,5hb[16:1]/6hb[16:1],,,,,,4-2[32:1],,
{48}4,6-8[32:1],3,,
{24}5-1[32:1],3,7,
{16}4b,6b,
{24}5b,7,Ch[24:1],6,,3,,7,,
{48}47,36,25,14,,,1h[16:1]/4h[16:1],,,,,,
{48}2,5,3,6,4,,
{24}7,8,3,
{48}1b/2b,38,47,56,,,,5hb[16:1]/6hb[16:1],,,,,
{24}47,8,12,3,45,6,
{24}1x/7x,8,8,2x/4x,3,3,5x-7-4-8-3-1b[16:3]/7x,46,
{48}3,7,2,8,3,7,4,6,
{4}1z5b[32:1]*-5b[32:1]/5,
{96}1bx,B1,B2/B8,Cf/B3/B7,B4/B6,B5,
{48},,,,,,,,,
{4},,
{8}1>8[4:3]/8h,,6h,,5h,,8<1b[4:3],
{16},Ch[24:1],
{8}2h,,3h,,5h,,8w4b[32:1],,
{24}8V63[16:1],,6,2,,4,8,,,,5,3,4V27[16:1],,2,6,,8,4,,6,,5,,4w8b[16:1],,,,,,,,,,,,
{96}8-4[32:1],17,26,35,4,,,,
{48}3-7[32:1],,6,,5-1[32:1],,2,,
{24}8b,,3b,,5b,,
{4}4h[8:7],5,
{8}6,6,7,8,
{12}5h[16:15],4,4,3,3,3,
{16}2,2,2,2,1,1,1,1,
{24}4,6,4,6,4,6,
{32}3,7,3,7,3,7,3,7,
{36}2,8,2,8,2,8,2,8,2,
{48}1w5[32:1],1,1V35z1b[16:6]*V75s1b[16:6],1,1,1,1,1,1,1,1,1,
{48}1b,Cf,,,,,,,,,,,,,,,,,,,,,,,
{8}4hx[32:1]/5hx[32:1],,36,27,1V35[16:1]*^4b[16:1],
{24}6,7,,1V75[16:1]*^6b[16:1],,2,,3,,1V35[16:1]*^4b[16:1],,,8,7,6,1,,7,,6,,5V71[16:1]*-8b[16:1],,,2,3,,5V31[16:1]*-2b[16:1],,6,,7,,
{24}5V71[16:1]*-8b[16:1],,,3,,,5,,2,,3,,4-1b[16:1]/8,,,6,,,4/8-5b[16:1],,2,,4,,
{24}3-6b[16:1]/8,,,6,,,7-2b[16:1]/3,,5,,4,,3p3p7p7b[4:1]/7,,,8,,,7,,6,,5,,
{24}4-8[32:1],8,5-1[32:1],
{48}1,6,
{72}2-6[32:1],7,3,
{48}8,,4,,,,
{24}5,,2,,
{48}5,,3,4,3,,6,5,6,,2-8[24:1],,5,,3,4,3,,6,5,8,,2/7-3[24:1],,
{48}5,,6,5,6,,3,4,3,,7/2-8[24:1],,2,,6,,
{72}3,4,5,6,,,
{72}6,,,2/7-1[24:1],,,
{24}5,
{48}3,4,3,,6,5,6,,7/2-6[24:1],,4,,6,5,8,,3,4,1,,2/7-1[24:1],,
{48}5,,3,4,1,,6,5,6,,27,,
{48}4,,,,5,,3,,
{72}6,7,8,1,2,3,
{48}4p7^8qq6^4[16:11]*q1^8pp2^4[16:11]/Cf,,,,,,,,,,,,,,,,,,,,,,,,,,,,,,,,,,,,,,,,,,,,,,,,
{96}1b/8b,27,36,4>2qq2b[32:8]/5<7pp7b[32:8],Cf/B5/B4/B3/B6,,,,,,,,,,,,,,,,,,,,
{4},,,
{12}4,,6h[12:1],5,,3h[12:1],4,,7h[12:1],5,,2h[12:1],4,,8h[12:1],5,,1h[12:1],4,,6h[12:1],5,,3h[12:1],4,,7h[12:1],5,,2h[12:1],4,,8h[12:1],5,,1h[12:1],4,,6h[12:1],5,,3h[12:1],,
