&title=Last Goodbye
&artist=Toby Fox
&first=0
&des=20INK
&lv_5=13
&inote_5=(180)
{16}
1h[16:2],,,,7h[16:2],,,,3h[16:2],,,,5h[16:2],,,,4h[16:2],,,,5h[16:2],,,,2h[16:2],,,,6h[16:2],,,,
1>4[16:2]/7h[16:4],,,,,,,,8h[16:4],,,,2h[16:4],,,,4h[16:4],,,,6h[16:4],,,,7,,8<6[16:2],,,,
8/2h[16:4],,,,5h[16:2],,,,,,3h[16:5],,,,,1,8,7hx[16:4],
,,,,3,,3,,4,,4,,3,,3,,8-5[16:2]/2h[16:4],,,,8,,,,
3x-6[16:2],,,,3x/8x-5[16:2],,,,8x/4x-1[16:2],,,,4x/7x-2[16:2],,,,7x/3,,4h[16:4],,,,
3h[16:4],,2h[16:4],,,,5,,,,6h[16:4]/4-1[16:2],,,,
4,,,,8-2[16:2],,,,8<6[16:2],,,,8>3[16:2],,,,8-5[16:2],,,,8/2h[16:4],,,,
,,,,7-5[16:2]/8-4[16:2],,,,7/8,,,,2-4[16:2]/1-5[16:2],,,,2/1,,,,26,,7h[16:2]/3h[16:2],,,,
8h[16:4]/4h[16:4],,,,,,3,,4,,3,,4,,4,,5,6,7h[16:4],,,,
1bx,,,,7h[16:2],,,,2bx,,,,4h[16:4]/5h[16:4],,,,,,,,
2bx-6b[16:2],,,,1bx-5b[16:2],,,,8bx-4b[16:2],,,,7bx-3b[16:2],,,,7bx,,1bx,,,,
5bhx[16:4]/3hbx[16:4],,,,,,5bx/3bx,,,,62,71,8-4[16:2],,,,8x,,,,,,
2bx,,,,E8/E7/B7,,,,3bx,,,,45,,3,,42,,3,,42,,53,,46,,5,,6,,7,,8,,18,,2,,43,,5,,46,,
4,,5,,4,,5,,8,,7,,8,,7,,86,,1,,52,,43,,3,,5,6,7h[16:2],,,,3h[16:2],,4,3,5,,4h[16:4],,5,,6,,
6,,6,,5h[16:2],,3,5,2,,4h[16:2]/3h[16:2],,,,6,,1,,1,,
1-4[16:2],,,,1/6-3[16:2],,,,6/2-7[16:2],,,,5-8[16:2]/2,,,,5-2[16:2]/4h[16:4],,,,5-8[16:2],,,,
5,,,,62,,,,3h[16:6],,1,,8,,7,,6h[16:6],,8,,1,,2,,3h[16:6],,5,,6,,7,,7h[16:6],,3,,2,,1,,
7-4[16:2]/6,,,,6-1[16:2]/7,,,,6/4,,4-7[16:2],,,,43,,,,1,2,3,,5,,4,,4,,5,,
5h,,4/6-1[16:2],,4,,46,,4,,4,,45,,5,,5,,5/3-7[16:2],,5,,35,,5,,5,,45,,87,,12,,
4h[16:2]/5h[16:2],,,,2h[16:2]/3h[16:2],,,,7h[16:2]/6h[16:2],,,,8h[16:2]/1h[16:2],,,,
7bx/A3f,,,,,,,,3bx/A7f,,,,,,,,8<1[16:240],,,,,,,,
E6,,,,,B2,,,,,B8,,,,,C,,,,E2,,,,A7,,,,,E5,,,,,,,,B2/B3,,,,E8/B7/B8,,,,C,,,,,,,,,E4,,,,,
,,,,D6,,,,A8,,,,B3,,,,,,,,,E8/E7,,,,E5/E4/B4,,,,E7/E6/B6,,,,,C,,,,A3,,,,,,,,,E7/B6/B7,,,,,,,,,
B8/B1/E1,,,,,,,,,,,,,,E4,,,,E8,,,,,,,B2,,,,,B6,,,,E3/B3/E4,,,,E7/B6/E6,,,,,
E3,,,,E5,,,,,E4,,,,,,,,,E8/B7/B8,,,,,,,,,E4/B4/E5,,,,,,,,E7/B7/E8,,,,,,,,,E4/B4/B3,,,,
E8/B8/A8,,,,C,,,,E3,,,,E6,,,,E7,,,,E8,,,,,,,,B8,,B6,,,,,,,,,C,,,,,,,,,,,,,,,
E1,,E3,,E5,,E7,,,
1/8-4[16:2],,7,,8/1-5[16:2],,2,,1/6-3[16:2],,7,,6/4-1[16:2],,5,,4/7-3[16:2],,8-2[16:2],,7,,8,,
4,,4,5,6,,7-5[360#16:4],,7,,1-4[360#16:4],,1,,8-5[360#16:4],,8,,2-4[360#16:4],,2,,
8-4[360#16:4],,8/1,,1,2,3,,3,,6,,6,,3,,3,,
5-1[360#16:4],,5,,2-6[360#16:4],,2,,8-4[360#16:4],,8,,3-6[360#16:4],,3,,8,,
7<5[16:2],,,,78,,,,84,15,26,,,,78,,5,,78,,5,,71,,5,,72,,4,,82,,4,,12,,4,,7,,7,,7,,7,,
2<7[16:2],,3,,4,,5>2[16:2],,6,,7,,8<6[16:2],,1,,2,,3-6[16:2],,,,8/3,,,,1,8,
2h[16:4],,,,5h[16:4],,,,6h[16:4],,,,7h[16:2],,8h[16:4],,,,5h[16:4],,,,4,3,2,,1,,6,,4,,3,,
6,,6,,6,,46,,4,,4,,4,,45,,5,,5,,5,,53,,3,,36,,63,72,18,,,,
1>5[16:4],,,,5<1[16:4],,,,1>5[16:4],,,,5<1b[16:4],,,,
1>5b[16:4],,,,5<1b[16:4],,,,1-3b[16:2],,,,5,,,,
4x/5x,,3,,45,,6,,45,,7,,45,,2,,43,,7,,46,,2,,56,,1,,43,,8,,43,,62,,43,,71,,45,,86,,45,,71,,
8,,8,,8,,8,,71,,62,,53,,4,,
3,5,3,5,3h[16:2],,,,6,4,6,4,6h[16:2],,,,4,7,4,7,4h[16:2],,,,6,2,6,2,6h[16:2],,,,
1,7,1,7,1h[16:2],,,,8,4,8,4,8h[16:2],,,,1,2,3,4,5,6,7,8,1,2,3,4,5,6,7,8h[16:8],,,,,
,,,6h[16:8],,,,,,,,4h[16:8],,,,,,,,5h[16:8],,,,,,,,3h[16:8],,,,,,,,7h[16:8],,,,,,,,
2h[16:8],,,,,,,,8h[16:8],,,,,,,,,71,,71,,,,82,,82,,,,56,,56,,,,43,,43,,,,62,,,,73,,,,
3b,,3,,4,,7b,,7,,6,,2b,,2,,5,,6b,,2,,3,,7b/4b,,,,5b/2b,,,,
1h[16:5],,,,,7h[16:5],,,,,2h[16:8],,,,,,,,
7h[16:5],,,,,1h[16:10],,,,,8h[16:5],,,,,,,,,
7h[16:12],,,,,,,,,,,,
2h[16:13],,,,,,,,,,,,,
6h[16:26],,,,,,,,,,,,,,,,,,,,,,,,,,
1h[16:12],,,,,,,,,,,,
8h[16:12],,,,,,,,,,,,6,,,,,,,,,,,,,,,,,,,,,,,,,,,,,,,,,,,,6,
5h[16:44],,,,,,,,,,,,,,,,,,,,,,,,,,,,,,,,,,,,,,,,,,,,
4h[16:89],,,,,,,,,,,,,,,,,,,,,,,,,,,,,,,,,,,,,,,
5h[16:50],,,,,,,,,,,,,,,,,,,,
