&title=まよいづき
&artist=onoken.実咲
&first=0.04
&des=yuyu
&lv_5=13+
&lv_6=12+
&inote_1=(144)
{1},,,,,,,{2},{36}6,5,4,,,,,,,{8}4,,3,,2,,,45,6-1[8:1],,6-3[8:1],,6,7^4[8:1],,7,1,,
{8},,1,2,36,,5,,6,,37,,,1,2-7[8:1]/6,,2-5[8:1],,2,3^6[8:1],,3,1,,
{2},{36}7,8,1,,,,,,,{8},,4,3,37,,,5,4/8^5[8:1],,8-3[8:1],,8,4-1[8:1],,4,6,,
{4},5,56,,{8}4-1[8:1],4,4-7[8:1],,2^5[8:1]/4,,27,,56,,
{8}5,,3,,46,
{8},,6,4^1[8:1],,4^7[8:1]/5,,4/2^7[8:1],,27,,36,,,4^7[8:1]/5^2[8:1],,,,
{8},,,8,1,28,,,6,8-3[4:1],,{4}3-6[4:1],6-1[4:1],1-4[4:1],3h[2:1],,{12},,{36}4,5,6,7,,,,{72},
{4},{8},18,,{36}7b-2[8:1]/2b-7[8:1],63,45,,{72},{8},27,,4^7[8:1],,4/6h[4:1],,8h[4:1],,,1,3h[4:1]/5,,6,,5-8[8:1]/1-4[8:1],,1-6[8:1]/5-2[8:1],,,,{4}5,56,
{8}7^4[8:1],,3^8[8:1],,3/6h[4:1],,7,,,6,7-4[8:1]/2h[4:1],,7,,6-1[8:1]/2-5[8:1],,26,,,,,5,6^3[8:1],,2-5[8:1]/6,,2/5-8[8:1],,3h[2:1],,7,,
{8}6,,45,,3,1-5[8:1],5-8[8:1]*-2[8:1],1,,,,,,4,35,,2h[8:1]/6h[8:1],
{8},,5,3-7[8:1]/7-3[8:1],,3^8[8:1]/7^4[8:1],,,,{8}1/6,5,4,5,4,3,2,5,1b,,1b,,1^6[8:14],6,5,4,5,2,2,5,4,3,5,4,5,5,4,2,,8,2h[4:1],,7h[4:1],,3-6[8:1],,3-8[8:1],1,3,2-7[9:1],8^3[8:1],2,6-1[8:1],,3-7[8:1],,3,
&inote_5=(144)
{1},{4},,1,2,3,3^8[8:1],,7h[4:1],,5,6,8^5[8:1],{8},8,1h[8:1],,{4}1,2,3,4-1[8:1],,8-4[1:1],,,,,,,{36}6,5,4,,,,,,,{8}4,,3,,2,,,45,6-1[8:1],,6-3[8:1],,6,7^4[8:1],,7,1h[4:1],,
{8},,1,2,36,,5,,6,,37,,,1,2-7[8:1]/6,,2-5[8:1],,2,3^6[8:1],,3,1h[2:1],,
{2},{36}7,8,1,,,,,,,{8},,4,3,37,,,5,4/8^5[8:1],,8-3[8:1],,8,4-1[8:1],,4,6,,
{4},5,5h[4:1]/6h[2:1],,{8}4-1[8:1],4,4-7[8:1],,2^5[8:1]/4,,27,,56,,
{8}5,,3,,46,
{8},,6,4-1[8:1],,4-7[8:1]/5,,4/2^7[8:1],,27,,36,,,4^7[12:1]/5^8[8:1],,,1h[4:1],
{8},,,8,1,28,,,6,8-3[4:1],,{4}3-6[4:1],6-1[4:1],1-4[4:1],3h[2:1],,{12},,{36}4,5,6,7,,,,{72},
{4},{8},18,,{36}7b-3[8:1]/2b-7[8:1],63,45,,{72},{8},27,,4^7[8:1],,4/6h[4:1],,8h[4:1],,,1,3h[4:1]/5,,6,,5-8[8:1]/1-4[8:1],,1-6[8:1]/5-2[8:1],,,,{4}5,56,
{8}7^4[8:1],,3^8[8:1],,3/6h[4:1],,7h[4:1],,,6,7-4[8:1]/2h[4:1],,7,,6-1[8:1]/2-5[8:1],,26,,,,,5,6^3[8:1],,2-5[8:1]/6,,2/5-8[8:1],,3h[2:1],,7,,
{8}6,,45,,3,1-5[8:1],5-8[8:1]*-2[8:1],1,,,,,,4,35,,2h[8:1]/6h[8:1],
{8},,5,3-7[8:1]/7-3[8:1],,3^8[8:1]/7^4[8:1],,,,{8}1/6,5,4,5,4,3,2,5,1b,,1b,,1^6[8:14],6,5,4,5,2,2,5,4,3,5,4,5,5,4,2,,8,2h[4:1],,7h[4:1],,2-5[8:1],,2-7[8:1],8,2,1-6[9:1],7^2[8:1],1,5-8[8:1],,2-6[8:1],,2,,3,4,5,4,3,2,8h[4:1],,2h[4:1],,1-5[8:1],,1-6[8:1],7,4,1-4[8:1],4-1[8:1],1,5-8[8:1],,4^1[8:1],,8^5[8:1],,,,1,2,1,8,7/2h[4:1],,6h[4:1],,7-2[8:1],,7-4[8:1],5,7,6-3[9:1],4^7[8:1],6,2-5[8:1],,7-3[8:1],,7,,4h[4:1],,,6,7,8,2h[8:1],4h[8:1],3h[8:1],5h[8:1],4-8[8:1],,{48}1/4b,,,,,,
{8},7,,6^3[8:1],,2h[4:1]/6,,,,4h[4:1],,1-5[8:1],,5^2[8:1],,,{32},,6,7,8h[4:1],,,,{8}1-4[8:1],,,,6,35,,,,6-2[8:1],,1/6,,,18,2/7-4[4:1],,
{8}4-1[4:1],,1-6[4:1],,6-3[6:1],,2h[8:6],,1,8,7,6,5,,
{8},,,,5-8[8:1],3,{32}5-2[8:1],,,,,,,,
{4}5^8[8:1]/7,5-1[8:1]/3,1^6[8:1],5h[8:3],{8},6,7,,1,,2,,3h[2:1],,,,
{8}8-5[8:1],8,2/8-3[8:1],,6/8-4[8:1],,4-1[8:1],,3,3-8[8:1],8-3[8:1],3,,8,7,,6,,5-8[8:1],,5,,
{8}6,2,7-4[8:1],2,5-8[8:1],,1-6[8:1],,1/2-5[8:1],,4-1[8:1],,8-3[8:1],,8/6,,2h[8:3],,6,7,8,1^6[4:1],1h[4:1],
{8},,,,6,5-1[8:1],,2,,,8,2^7[4:1],,7^4[4:1],,4^1[4:1],,1-6[8:1],,5-2[8:1],,8-3[8:1]*-5[8:1],,8b,
{8},,,4-8[8:1],6,8-4[8:1],,4^1[4:1],,1^6[4:1],,6^1[4:1],,8-5[8:1],
{8},,2,3-7[8:1],,4-1[8:1],,,,2-5[8:1]/7-4[8:1],,,,5,3,6^3[8:1]/2^7[8:1],,
{8}6-1[8:1]/2-5[8:1],,,,37,,4,,5,,2h[4:1],,,1,2,6h[2:1],7,8,1,2,,4,{32}7-4[8:1],8,1,,{8}2,7/3^8[8:1],,3^6[4:1],,6-2[4:1],,2-5[8:1],,7,,37,1-5[8:1],,5-8[8:1],8-4[8:1],4^1[8:1],1^6[8:1],,,,
{8},7,1-6[8:1]/8-3[8:1],,18,,,3,4/5-2[4:1],,2^7[4:1],,7^4[4:1],,4^1[4:1],,1^6[4:1],,6^3[4:1],,,,1,,2/7^4[8:1],,3h[8:19],,
{4}5,6,7,8-5[8:1],,6,5,6,7,{8}8,2,1-5[8:1],,1-6[8:1],7,1-4[8:1],3-8[9:1],7^4[8:1],,1-5[8:1],,1,,27,,4,5,4,4,5,4,45,,83,,8-4[8:1],,8-3[8:1],2,6,8-5[8:1],5-8[8:1],8,4-1[8:1],,5^8[8:1],,1^4[8:1],,,,8,7,8,1,72,2-7[8:1],7-3[8:1],,6-1[8:1],,6-3[8:1],4,,5-2[9:1],3^6[8:1],5,1-4[8:1],,7-3[8:1],,,,1h[3:1]/8h[3:1],,,,27,,{24}54,63,7h[2:3]/2h[2:3],
{1},,,E
&inote_6=(144)
{1},{4},,6,4,35,4h[2:1]/6,,7,8,4,35,4h[8:3]/2,{8},2,6,,6,,{4}4,35,4h[2:1]/6,,6,{8}46,5,6,4,5,3,4,,
{2},{36}7,6,5,,,,,,,{8},4,3,2,45,,,5,6,,5/7h[8:3],,,3h[8:3],,,8,,
{8},,1,2,36,,,5,6,7,62,,,5,6,,5/3h[8:3],,,6h[8:3],,,1,,
{2},{36}8,7,6,,,,,,,{8},8,4,3,37,,4,5,4,6,5,,3,,1,,24,,
{4},5,56,,4,45,6,7,86,
{8},5,3,2,46,
{8},,6,4,6,5,,7,2,18,,36,,2,5,2,,3,
{8},,6,5,4,35,,7,6,7,,{4}8,1,23,3/4h[2:1],,{12},,{36}3,2,1,8,,,,{72},
{4},,{8},{36}8b/7,6,5,,{72},{8},6,5,4,6,4/6h[4:1],,2,1,8,,3h[4:1]/5,,6,4,5,6,6/4h[4:1],,7,,{4}5,56,
{8}7,3,5,3,3/6h[4:1],,3,4,5,6,7/2h[4:1],,6,6,7,8,18,,,3,4-8[8:1],5,6h[8:3],,1,,2/5-1[8:1],,3h[2:1],,8,,
{8}7,,46,,5,6,5-8[8:1]*-2[8:1],4,,,1,7,,,4,35,2h[8:1]/6h[8:1],
{8},,5,37,,2,,1,,{8}1/6,5,4,5,4,3,2,1,8,7,2,,1,6,5,4,5,1,1,7,8,1,6,5,6,7,5,4,1,8,2h[4:1],,7h[4:1],,2,,1,8,1,2,7,1,1,,6,5,4,8,2,3,4,3,2,1,8h[4:1],,6h[4:1],,1h[4:1],,8,7,4,3,6,3,6,6,5,4,6,2,1,8,1,2,1,8,7/2h[4:1],,6h[4:1],,3,,2,3,4,7,7,5,6,5,4,6,5,6,7,6,5,6,7,8,2h[8:1],4h[8:1],3h[8:1],5h[8:1],4h[8:1],,{48}5,3,6,2,,,
{8},6,3,4,3,2h[4:1]/4,,5,3,4h[4:1],,1,,5,,1,{32},,6,7,8/1h[4:1],,,,{8},7,2,6,6,35,,4,3,,7,18,,18,,6,,
{8}4/5,6,7,8,1,,27,1,7,6,5,4,3,,
{4},,,{32}6,5,4,,,,,,
{4}3,2,1,8,,7,3,4,5,,
{8}8,8,2,,6,,5,,3,,4h[2:1],,,,6,,8,,1,,5,,
{8}6,2,7,2,8h[2:1],,6,,6,,4/1h[2:1],,3,,3,,2h[8:3],,,7,8,1,6,
{8},,,,6,5,,3,7,,8,1,,2,,6,,1h[8:5]/8h[8:5],,,,,,27,
{8},,,8-3[8:1]*-5[8:1],,8b,,4,5,4,3,12,,18,
{8},7,6,3,4,3,2,8,1,27,,4,,5,,63,,
{8}4,5,4,3,27,,3,,5,,2,2,1,1,2,7,6,5,6,5,6,4,{32}7,8,1,,{8}2,8,3,8,2,8,,12,,6,,45,,5,3,4,3,4,5,6,,
{8},7,7,,12,1,18,,18,,2,,7,,46,4,,6,5,4,3,7,1,8,2/7^4[8:1],,3h[8:19],,
{4}5,6,7,8,7,6,5,6,7,{8}8,2,1-5[8:1],,,,8,,68,,71,,18,,27,,4,5,4,4,5,4,45,,83,,6/1^4[8:1],,7,7,61,6,71,7,18,,8,,7^4[8:1],,2,2,38,3,27,2,1/8h[8:3],,,1,7-3[8:1],,1,1,56,5,82,8,17,,8,,6,,4h[8:3],,,,27,,{24}54,63,7h[2:3]/2h[2:3],
{1},,E
