&title=花弁、それにまつわる音声
&artist=あばらや
&first=2.26
&des=おめめ
&clock_count=4
&panoramic=true
&lv_5=13+
&inote_1=
&inote_4=
&inote_5=(108)
{4}1,2h[4:2]/4,3p5[24:5]b,,
{24}2h[24:5],,,,,5,2h[24:5],,,,,5,2h[24:9],,,4,,,3,,,1,,,
{24}7h[24:5]/3,,,,,3,7h[24:5],,,,,3,7h[24:12],,,2,,,1,,,8,,,
{8}6^3[8:1],6,1q5[8:1],1,2^4[8:1],2,8>4q5[2:1]b,
{2}8,{4},
{4}Cf,{8},
{24}8h[24:5]/2,,,,,3,3h[24:5],,,,,4,{8}3,
{24}5,,5,4,,4,6-3[12:1],,6,3-6[12:1],,,6,,,2h[24:5],,,,,
{24}8,1v4[12:1],,,2/5<8[12:1],,,1,,,5,,,
{24}2^5[12:1],,,,,6^1[12:1],2,,,,,6,2,,,2,,,3/5,,,{6}1/8h[4:1],{12},
{32}1bxw5[12:1],2,{16}3,{32}6xb,7,{16}8,{4}A1f,
{12}6,{24}6,4,5,3,6,4,5,
{24}3h[24:5],,,,,8,8h[24:5],,,,,2,{8}1,
{24}4,,4,6,,6,2^4[12:1],,2,5p1[12:1],,,2,,,,,,,,
{24}8,4-1[12:1],,,3/6-3[12:1],,,4,,,,,,
{24}8^5[12:1],,,,,4-7[12:1],8,,,,,4,2,,,8,,,7/5,,,{6}1/2h[4:1],{12},
{32}3bx,4,{16}5,{32}3bx,4,{16}5,{4}1bh[4:1],
{24}2,,2,4,,4,2,,2,3hx[24:6],,,{64}B2,A2,,,,,,,{24}E4,,,2h[24:6]/4,,,,,,
{24}7,,7,5,,5,7,,7,6hx[24:6],,,{64}B7,A7,,,,,,,{24}E6,,,7h[24:6]/5,,,,,,
{24}1,,1,4,,4,1,,1,3hx[24:6],,,{64}B2,A2,,,,,,,{24}E4,,,2/4-1[12:1],,,,,,
{24}4/6,,,7,,7,1,,1,8,,3,4h[8:1],,,8b,,,8h[8:1],,,
{24}3,,,3h[24:3]/8h[24:3],,,,4x/1x,5x/2x,3x/6x,,,
{24}E5f,,,3,,,4/6,,,5h[24:9],,2,,,,1,,,
{24}2-5[12:1],,,3,,,2/8bxV25[12:3]*>4[12:3]b,,,,,7,,,,,,,,,,
{24}7,,7,1,,8,2h[24:6],,,,,,
{24}6q3[8:3],,,2^7[4:1],,,,,,,,,,,,,,,
{24}A4,D5,A5,D6,A6,D7,A7,D8,A8,D1,A1,D2,A2,D3,A3,D4,A4,D5,A5f/1hb[24:9],,,,,,,,,
{8}8-4[12:1],3/4,{24}8/2,,,8x-4[12:1],,5,2V48[24:3]b,,,8,,,2xb,,7,,,,
{8}8-4[12:1],3/4,{24}8/2,,,8x-4[12:1],,5,2V48[24:3]b,,,8,,,2xb,,7,,,,
{8}8-4[12:1],4/5,{24}8/6,,,8x-4[12:1],,4,6V84[24:3]b,,,8,,,6xb,,2,,,
{24}3V14[12:2]*pp4[12:2]b,4,,6,5,,,,,,,,
{24}7,8,,4,3,,6,5,,3,4h[8:1],,,
{8}1-5[12:1],6/5,{24}7/1,,,1-5[12:1],,4,5-1-3[24:3]b,,,1bx,,,8,,8x,,,,
{8}8-4[12:1],3/4,{24}2/8,,,8-4[12:1],,5,4-8-6[24:3]b*-2[24:2],,,8bx,,,,,,,,,
{8}1-5[12:1],6/5,{24}7/1,,,1-5[12:1],,4,7-3[12:1],,,1V73[24:3]b,,,7,,,1xb,,,
{8}6hx[8:1],2h[8:1],{24}4,,,2,,2,8,,8,1,5,3,8hb[24:6],,,,,,
{24}2-5[12:1],,2,5v3[12:1],,5,2,,,7-5[12:1],,,8,,,7/4-7[12:1],,,3,,3,4,,,
{24}1>4[12:1],,1,4>1[12:1]b,,4,1,,,8V24[24:3],,,7,,,8/5-2[12:1],,,6,,6,5,,,
{24}8,,8,2-5[12:1],,2,4,,4,2,,,7h[8:1],,,5-8[12:1],,,3/6,,4,5,,,
{24}1^6[12:1],,,4/2,,,1/5V71[24:3]b,,,2,,,5b/1,,,2,,2,4,,4,3,,,
{24}7-4[12:1],,7,4v6[12:1],,4,7,,,2-4[12:1],,,1,,,2/5-2[12:1],,,6,,6,5,,,
{24}8,,8,1-3[12:1]b,,1,3pp1[24:4]b,,,1b,,,8b,,,,,,8,,8,2,,,
{8}3h[8:1]/4,8,6h[8:1]/5,1,4h[12:1]/2,1,{24}5h[12:1]/7,,8,5,,,
{8}1h[12:1]/3h[12:1],2/4,8h[12:1]/6h[12:1],{24}7/5,,2,4,,
{24}7,5,,2,3,1,4,8,5,7,{1}6-3[4:5],,
{2}4>5[1:1],{4}5pp4[4:2],,,,
{4}A3,A4,5<4[1:1],,1qq5[4:2],,,,A6,A5,
{4}5h[4:1],3,4h[4:1],3,3pp4[32:6],2/3V14[4:3]b,
{1}2hb[4:3],{4},
{8}4xb/5hxb[4:1],
{24},,,
{48}A7,A6,A5,4hx[48:21],,,,,,,,,,,,,,,,,,,,,
{48}A2,A3,A4,5hx[48:21],,,,,,,,,,,,,,,,,,,,,
{24}4,,4,6,,6,2,,2,6,,6,5,,5,4,,4,3,,6,2,,2,7,,
{24}7,1,,1,
{24}A8,A7,A6,A5,A4,A3,A2,A1,A8f,{3}4hbx[24:9],
{24},
{8}8bx-4-2V48[8:4]b*-4-6V48[8:4]b,,,,,,A8f,,
{8}1-5[12:1],6/5,{24}1/7,,,1-5[12:1],,4,7V51[24:3]b*V53[24:3],,,1,,,7xb,,,,,,
{8}1-5[12:1],5/4,{24}1/3,,,1-5[12:1],,5,3V15[24:3]b*V17[24:3],,,1,,,3xb,,,,,
{24}6V85[12:2]*qq5[12:2]b,5,,3,4,,,,,,,,
{24}2,1,,5,6,,3,4,,6,5h[8:1],,,
{8}1-5[12:1],6/5,{24}7/1,,,1-5[12:1],,4,5-1-3[24:3]b*-1-7[24:3],,,1bx,,,,,,,,,
{8}8-4[12:1],3/4,{24}2/8,,,8-4[12:1],,5,4-8-6^5[24:3]b*-2^1[24:2],,,8bx,,,,,,,,,
{8}1-5[12:1],6/5,{24}7/1,,,1>4[12:1],,4,5-2[12:1],,,1,,,8,,,7,,
{24}7,1,,2,8,,6,1,,3,8,,8<5-3[12:2]b,4>1-7[24:3]b,,3,7,,,,,,,,,
{8}4/8-4[12:1],2/6,4b/8b,{24}2-5[12:1],,2,5v3[12:1],,,2/6,,,7,,6,,,,
{8}4/2-5[12:1],5/7,2/1,{24}7-4[12:1],,7,4v6[12:1],,,7/3,,,2,,3,,,,
{8}5/7-4[12:1],4/2,7/8,{24}2-5[12:1],,2,5v3[12:1],,,2/6,,,7,,6,,,
{24}6,5,,3,4,,7,5,,2,4h[24:9],,A5,D6,,A3,D3,,A5,D6,,,
{24}2,,2,8-4[12:1],,,3/4,,,8/1,,,2,,2,4-8-6[24:3],,,5/7,,,4,,2,,,,
{24}8-4[12:1],,,4/3,,,2/8,,,2,,2,4-8[12:1]b,,,3/5,,,4b/6,,,,,,
{32}1/7b,2,3,4,5,6,7,8,1b/A6f,2,3,4,5,6,7,8,
{32}1/5b,2,3,4,5,6,7,8,1b/A4f,2,3,4,5,6,7,8,
{8}1b/3b,2b>4q8[8:4]/4bqq2>7[8:4]b,
{2}3b/5b,
{4},
{24}1hx[24:5],,,,,6,1h[24:5],,,,,6,1h[24:9],,,7,,,8,,,2,,,
{24}1h[24:5]/3,,,,,3,1h[24:5],,,,,4,1h[24:9],,,5,,,6,,,7,,,
{24}8h[24:5]/6,,,,,6,8h[24:5],,,,,5,8h[24:9],,,4,,,3,,,2,,,
{24}1h[24:5]/3,,,,,3,1h[24:3],,,5h[24:12],,,,,,
{8}2,3,4,{24}5h[24:6]/4h[24:5],,,,,,4h[24:5],,,,,
{24}5h[24:4],,,,6h[24:3],,,7h[8:1],,,8,,,8-4[12:1],,,,
{24}6/A1,7/A2,8b/A3f,,,
E
&inote_7=
