&title=To the Milky Way
&artist=黒魔
&first=-0.118
&des=1stCCB
&lv_5=14
&des_5=1stCCB
&inote_5=
(186){4},{8},,4/6h[4:1],,,5h[4:1],
,A7,,5/6h[4:1],,5,{16}E5,E4,{8}E3,
{4}8,{8}D7,D6,2h[4:1],,,4/3h[4:1],
,4q7[8:7],,1h[8:7],,,,,,,,,4/2h[4:1],
,,3h[4:1],
,5,,4/2h[8:3],,4,{16}E6,E7,{8}E8,
3h[8:1],8,2,B6/B5,,5,7,A4/D4,
,6,5,2/4h[8:3],{16},,1,2,{4}3<6[4:1],
,C,7x/4x,{8}6h[8:1],5,
7h[8:1],6,,7h[4:1],6,5,{16}A4,A3,{8}A2,
{4}8,{8}7h[8:1],1,6h[4:1],2,3,4-2[8:1],
,4pp7[8:5],,1h[8:5],,,,,,,{4}1x/B7/E7,
{8}2h[8:1],4,3h[8:1],5,
4h[8:1],6,,3h[4:1],6,5,{16}D3,D2,{8}D1,
6,1-5[8:1],8,1x/7x,,8-4[8:1],1,8x/2x,
,3-8[8:1],4,3/5xpp4[2:1],,1,{4}1x,
,Cf,{8}4x/2x,4xh[8:11]/2x-5-8-3<1[8:9],,,,,,,,,,,,,,5xh[4:1]/3xh[4:1],
,,{4}4xh[2:3]/6x-2-5-1>7[4:5],
,,,,,,6/7h[4:1],
{8}5,4,
{4}3/E8/B7,{8}3,4/2h[4:1],,4,{4}3/5h[4:1],
B2/E3,{8}6,5/7h[4:1],,4,{4}4/6h[4:1],
{8}5,4,3,4/2pp5b[8:5],,8,{4}8bxh[2:1],
,,{2}Cf,
{8}E6,B5,B4,E4,{4}B7/B6,E2/B1,
D7,B4,B8/E1,{8}E3,E4,
,6,5pp8[4:3]*pp8[4:3],4qq1[8:5],,,,,,,,,{4}7x<4[8:1],
{8}7/8,1x-5[8:1],
,1/5,{4}6x-2[8:1],{8}6/5,4x>1[8:1],,4/8,
{16},A7,A6,A5,4x-7[8:1],,,3,{8}4,2,{4}1/8,
{16}2x-6[8:1],,,1,{8}2,8,{2}7x/5x-1b[8:1],
{8}8,{16}1,1,{8}7,6,5b/2b,1,{24}7/1-6[8:1],2,3,4,,,{4}1,
{8}5/3,4,{24}6/4<7[8:1],3,2,1,,,{8}4,1-3[8:1],
8,1-5[8:1],6,1,7<4[8:1],7,8x,1-5[8:1],
1,6x,7<8b[8:3],7,{2}1bh[2:1],
{16},,7,7,{8}8,1,{16}8b/7b<4[8:1],,,1,{8}7,2,
3x-8[8:1],4,3,5,{4}6-2[8:1],6/5-1[8:1]*-1[8:1],
5/4-8b[8:1],4x/2x,{16}2,1,3,1,{4}4bh[8:1],
{16}7,8,6,8,{4}5bh[8:1],{16}4b/2b,,,1b/8b,,,{8}7b/5b,
6x/4x,{16}3b,5b,{8}1b,2,3/7,3,{24}2/8-3[8:1],7,6,5,,,{4}8,
{8}4/6,5,{24}3/5>2[8:1],6,7,8,,,{8}5,7,
7-5[8:1],8-3[8:1],7,8,4-7[8:1],4,3x,2-5[8:1],
2,1x,8<3b[2:1],8,{4}1b,1,
{8}1,{16}2,2,{8}4,3,{16}5x/2x-4[8:1],,,7,{8}2,6,
{16}5x/2x-5[8:1],,,8,{8}2,7,{16}6x/2x-6b[8:1],,,1,{8}2,8,
5/7,{24}4,6,4,{8}6,7,7b/5,{16}5x,5x,{8}6,7,
8x/2x,{16}8x,8x,{8}1,2,3x/5x,{16}3x,3x,{8}4,5,
{16}4,6,{8}2h[8:1],{16}1,3,{8}7,{2}8bxqq5[1:1]`4bxqq5b[1:1],
,,5w1[8:1],
{8}7x/3x,7/3,6/2,6/2,
5x/1x,5/1,8/4,{32}D1,D2,D3,D4,{16}6x,5,6,5,7x,5,6,5,
8x,7,6,5,{4}2b/4bx,{8}5x/3x,4xh[8:1]/2xh[4:1],,,3x/5x,
4xh[8:1]/6xh[4:1],,,,6x/4x,{16},5x/3x,,,{4}6x-1[8:1]/2x-5[8:1],
6/2,{8}3x/8,7xh[4:1]/4xh[8:1],,,6x/3x,
5xh[8:1]/2xh[4:1],,,,7x/4x,{16},5x/2x,,,{2}8x-4[8:1]/1x-5[8:1],
2x/6x-4-2-8-6>4>2<8<6[2:7],
{4},,,,,,,,,,,,,,3h[2:1],
{8}4,4,
{4}4,6h[2:1],{8}5,5,{4}5,
{8}6,5,{4}4/3,2h[2:1],{8}4,4,
{4}5,{8}6h[4:1],5,4x,3,3,5x/2x,
6,6,{4}7x/1x,{8}6/5,7,5,6h[16:1],
4,3,3x/5x,2,4,3h[16:1],5,6,
7x/5x,6/4,{4}5x/3x,{8}4x/2x,2,2/5,3h[16:1],
5,6,7x/4x,7,7/5,6h[16:1],4,5,
4/3,5/2,{4}6x/1x,{8}7x/1x,6x-3<5-8[8:11]/2x-5>3-8[8:11],{1},{4},,,{12}1b,
1,1,7b,7,7,
8b,8,8,6b,6,6,{2}1bw5b[2:1],
{4},,6/B2/B1,3/B6/B5,
{16}7/4,,,6/3,,,{8}5/2,{16}5/1,,,6/2,,,{8}3/7,
{16}4,8,2,6,{4}4b,{8}5b/3,1b/7,{4}6b/2b,
{16}3,5,,5,{8}3h[8:1],4,5x/2x,{16}3,4,{8}2,2,
{16}8,1h[8:1],,7,{8}2h[8:1],6,5/3,{16}5,4,{8}6h[8:1],{16}4,5,
{8}3h[8:1],4,5/3,3,{16}5,4,6,4,{8}5h[8:1],3,
4/2,{16}3,5,{8}3,6/4,7x/5x,{16}6,5,{8}7,7,
{16}1,8h[8:1],,2,{8}7h[8:1],3,4/6,{16}7,5,7,5,{8}7,
{16}4,6,,6,{8}4h[8:1],5,5/3,{16}3,5,{8}4,4,
{16}3,5,3,4,{8}3,3,{16}3xh[8:1]/4xh[8:1],,,4xh[8:1]/5xh[8:1],,,{8}5xh[8:1]/6xh[8:1],
{16},7xh[8:1]/4xh[8:1],,,{8}7x/4x,8x/3x,2bx/1bx,3,4/6,{16}6,5,
{8}7,7h[8:1],8,{16}8,7,{8}1,2,3/5,6,
{16}7,5,{8}7h[8:1],{16}4,6,{8}4h[8:1],5,3,4/2,{16}2,4,
{8}2h[8:1],5,6,{16}7,5,{8}7h[8:1],6,7/5,6/4,
{16}3x,5,3,5,2,4,{8}2x,5x/1x,2x/6x,{16}3,5,{8}3,
4x/6x,5x/7x,{16}7,5,{8}7,8x/4x,7x/3x,{16}2,6,1,5,
1xh[8:1]/5xh[8:1],,,3xh[8:1]/7xh[8:1],,,{8}6x/2x,{2}5xq8[2:3]`3xp8b[2:3],
{1},{4},,{16}E7/Ch[1:2],
E6,{8}E5,{1},,{4},,,{2}5h/4w8[1:3],
{1},,,{8}6x/2x,
{16}3b,5b,{4}1b,{16}2b,4,2,4,3,5,3,5,
4,6,4,6,5,7,5,7,4b,8,4,8,3,7,3,7,
2,6,2,6,1,5,1,5,2b,4,3,5,2b,4,3,5,
2b,4,3,5,2b,4,3,5,1b,6,3,8,4b,5,2,6,
{4}7x<4b[8:1]/1x>4b[8:1],7b/1b,{8}3x-8[8:1],{16}5,5,{8}3,6,
7/1,{24}1-5[8:1],2,3,{8}4,1,{4}4-1[8:1]*-2[8:1],4-7[8:1]*-6[8:1],
4-8[8:1],4b,{16}1b,7,1,7,{24}1,2,3,4x/6x,{48},,,,{16}7b,
5,7,4,{24}8,7,6,3x/5x,{48},,,,{16}4xh[8:1]/2xh[8:1],,,5xh[8:1]/1xh[8:1],,,{8}6x/2x,
7x/3x,{16}2b,8b,{8}1b,7,6b/4b,7,{24}8/1-5[8:1],2,3,4,,,{8}1-6b[8:1],
3,1,4,{24}7/5<8[8:1],4,3,2,,,{8}5-1b[8:1],1,
5,{16}2,2,{8}8,1,6x/2x,{16}3,5,{8}4,6x/4,
{16}6,5,{8}7h[8:1],{16}6,7,5,7,{8}4b-1b[8:1],8,8/4,7,
6/2,{16}3,3,{8}5,2,5x/1x-3[8:1],{16}6,6,{8}1,7,
8x/1x-5[8:1]*-5[8:1],{16}7,7,{8}1,6,6x/1x>4b[8:1],{16}7,7,{8}1,8,
7x/5x,{24}4,6,4,{8}6,3,2x,2,3/6,6/3,
{16}4,7,4,6,5,7,5,8,{8}4x,4,7/3,7/3,
{16}6,4,6,3,5,2,5,2,{2}5bw1b[1:1],
{4},,,,5-1[8:1],
5b,{8}8b/2b,8/2,7/3,7/3,
6/4,6/4,5/3,5/3,{16}2b,4,3,4,2b,5,3,4,
1b-5b[8:1],5,3,7,{4}1b,{8}6/4,7/5,{16}5,7,{8}5,
4/6,5/3,{16}5,3,{8}5,2,2x/5x,{16},7x/4x,,,{4}8x-4[8:1]/1x-5[8:1],
8bx/1bx,{8}3,4/2,{16}4,2,{8}4,
5/3,4/6,{16}4,6,{8}4,7,7x/4x,{16},2x/5x,,,{8}4x/1xh[4:5],
Ch[8:9],,,,,,,,,,,{2}Cf/1bw5[2:7]*w5[2:7],
,,,,,,,C,
E
