&title=Wake Up, Get Up, Get Out There
&artist=Lyn
&first=0.958
&des=Kurage
&lv_5=13+
&inote_5=(127)
{16}4h[16:3]/3,,,3,,,1-4[8:6]/5,,{4},,
{8},,,7p6[48:13],,,,,
{16}5h[16:3]/6,,,6,,,8-5[8:6]/4,,{8},,3,3h[8:6],
,,,,,4q2[32:5],,,
{16}3h[8:1],,,3-5[32:3],4,,7h[8:2],,{8},6pp5[4:1],,5,
5,,4,6/3-6[8:1],,8h[8:2],,4,
{16}6h[8:1],,,6-4[32:3],5,,2h[8:2],,{8},3qq4[4:1],,4pp4[4:1],
,,,,5,5,6-1[8:1]/2v5[8:1],,
2b/6b,,48,6h[8:1],5,{16}5h[16:1],7h[16:1],4-8[8:1],,3h[16:1],5h[16:1],
{8}4,6,{16}62,3,4,5-3[32:3],4,6-8[32:3],,,{4},
{16}1/2h[8:1],,,3>8[8:1],7,,6pp3[48:15],6,{8},5,4,4h[8:2],,5,
{16}36,4,5,4,6,2,,81,,3/7>4[16:3],,,
{8}5b,,1,3h[8:1],4,{16}4h[16:1],2h[16:1],5-1[8:1],,6h[16:1],4h[16:1],
{8}5,3,{16}37,6,5,4-6[32:3],5,3-1[32:3],,,{4},
{16}8/7h[8:1],,,6<1[8:1],2,,3qq6[48:15],3,,,{8}4,5V74[8:3],4V25[4:1],
,,,,36,36,36,,
{16}2v4[64:9]/4,,,1<6[8:1],,,,,5,,5h[16:3],,,4-8[8:1],,,
,,1>4[64:7],,,1<6[64:7],,,1-5[64:7],,,,,,7,,
7h[16:3],,,6>3[8:1],,,3,,,,1z5[48:13],,,,4,,
4h[8:2],,,,3,,,,2q6[64:9]/6q2[64:9],,,,,,,,
1V75[64:9]/5,,,2-6[8:1],,,,,4,,4h[16:3],,,5-1[8:1],,,
,,8<5[64:7],,,8>3[64:7],,,8-4[64:7],,,,,,2,,
2h[16:3],,,3<2[32:11],,,6,,,,,,,,4,,
4-1[8:1]*-7[8:1],,,,,,,,2-6[8:1]/6h[4:1],,,,,,8,,
8b-4[64:7]/5b-2[64:7],,,5b/8b,,,,,4h[4:1],,1,,3h[4:1],,1,,
4-6[32:3],,3,,2-8[32:3],,3,,7,,7h[8:1],,8p4[64:9],7,,1,
,3p5[64:13]*>5[64:13],2h[8:1],,,,,,,,4h[8:1],,5pp5[64:15],3,,4>8[16:3],
,,,,,,6,,8h[8:1]/6h[8:1],,,2h[8:1]/4h[8:1],,,3,,
1b-5[64:7]/4b-7[64:7],,,4b/1b,,,,,5h[4:1],,8,,6h[4:1],,8,,
5-3[32:3],,6,,7-1[32:3],,6,,2,,2h[8:1],,1q5[64:9],2,,8,
,6q4[64:13]*<4[64:13],7h[8:1],,,,,,,,,65,,,3bq3[64:17]/7bp7[64:17],,
{4},,{16}46,,,1,2-4[32:3]/8-6[32:3],,37,,
{16}2b/8b,,,15,,,4h[16:1],2h[16:1],5-1[8:1],,6h[16:1],4h[16:1],5-7[32:3],,3,,
35,,2pp4[64:11],,,3/4>8[64:11],,,8p4[64:10]*<5[64:9],,,7,,,,,
4q6[64:18]/3qq8[64:18],,,34,,,,,,,7,,1h[8:1]/5h[8:1],,,,
4h[16:1],6h[16:1],2v4[64:10],,,3/4V28[64:11],,,8V64[64:11]*v2[64:10],,,7,,,,,
1V36[48:10]*V74[48:10],,,82,,,,,,,7h[16:1],5h[16:1],6>3[8:1],,3-7[8:1],,
7>2[8:1],,,2,,,4w8[8:1],,,,4,,,,26,,
8/7h[8:1],,5pp4[32:7],,4,,3>6[48:9],2h[48:9],,,,,4,,,,
2h[8:1]/1,,4h[8:1],,,2h[8:1]/6h[8:1],,,3h[8:1]/5h[8:1],,,8,1-3[32:3]/7-5[32:3],,26,,
{16}7b/1b,,,84,,,5h[16:1],7h[16:1],4-8[8:1],,3h[16:1],5h[16:1],4-2[32:3],,6,,
64,,7qq5[64:11],,,6/5<1[64:11],,,1q5[64:10]*>4[64:9],,,2,,,,,
5p3[64:18]/6pp1[64:18],,,65,,,,,,,2,,8h[8:1]/4h[8:1],,,,
5h[16:1],3h[16:1],7v5[64:10],,,6/5V71[64:11],,,1V35[64:11]*v7[64:10],,,2,,,,,
8V63[48:10]*V25[48:10],,,17,,,,,,,2h[16:1],4h[16:1],3>8[8:1],,8-4[8:1],,
4<7[8:1],,,7,,,1w5[8:1],,,,1,,,,73,,
1b/2h[8:1],,4qq5[32:7],,5,,6b<3[48:9],7h[48:9],,,,,5,,,,
8b/7h[8:1],,5pp4[32:7],,4,,3b>6[48:9],2h[48:9],,,,,4h[16:1],,4h[16:1],,
35,,,35,,,17,,,
