&title=あだぽしゃ
&artist=いよわ
&first=0
&des=Tinyn269
&des_5=
&lv_5=13+
&inote_5=(213){4},{12},,,,,,4/5,,4,
{6}5,{12}6,3,,5,{6}5,{12}3,3,,,{4}2b/6b,
{12}5,,4,{6}4,{12}4,5,,6,
{6}7,{12}8,1,,2,{4}3,4<7[8:1]*>1[8:1],
,8xh[4:3],B7/B6,B5/B4,
B3/B2,{12}3,,4,{6}3,{12}3,4,,3,
{4}4,4/5,4h[2:1],{16}6x,7x,8x,1x,
,,,,{4}6/5-2[16:3],5/6v1[16:3],6,
3,8b,1/2>5[8:1],2/1v6[8:1],
1,3/5,4/6,{12}5,,6,
{4}6,5/4,{12}6,4,5,3,,,{4}4>6[1:1]/5pp8[1:1],
A5f/D5f/A4f,{12},,,,,,,,,,,,,,,5h[4:1],
,4,
,,{6}4h[4:1],{3}5,{6}5-7[8:1],{12}4,5/3,
,,{6}8h[4:1]/1h[4:1],,,3,{12}4,5,
,4,{6}3,{12},6b,,,4,,,4/5v8[4:1],
,,{6}5/4v1[4:1],{12},4,{24},,,,6,,,6,,,{12}7,
{24},,,,1/6,,,7/2,,,{12}8/3,{48},,,,,,,,,,,,{16}2x,3x,4x,5x,
6x,7x,8x,1x,2x,3x,4x,5x,{48},,,,,,,,{12}4h[6:1]/7h[6:1],,,7h[8:1]/4h[8:1],
{24},,,{8}4/7,{24},,,,{12}2h[6:1]/7h[6:1],,,2h[6:1]/7h[6:1],,,7/2,
,,{6}2h[6:1]/8h[6:1],{12},2h[6:1]/8h[6:1],,,8/2,,,7h[6:1]/1h[6:1],
,,{6}7h[6:1]/1h[6:1],{12},1/7,,,5h[6:1]/4h[6:1],,,5h[6:1]/4h[6:1],
,,{6}4/5,{12},4qq4[4:1],{24},,,,5/4,,,6x,,{8}5x,
{24},,,,{6}1b-4[4:1]/8b-5[4:1],{12},,,,,,,4x/5x,
5x/4x,4x/5x,,,4x/5x,5x/4x,{8}5x/4x,3h[4:1]/6-1[4:1],,6,
,3,,8h[4:1]/2-5[4:1],,2,,7,
,4h[4:1]/6-1[4:1],,6,,3,,7h[4:1]/1-4[4:1],
,1,,6,,6/2,,6,
4,5-7[6:1],,5,,4-2[6:1],5,4,
5,5,{4}6/1,{8}5,5/3,,4p8[16:3]*q8[16:3],
,4x,,,,1h[6:1]/7-4[4:1],,1/7,
,2,,5h[6:1]/3-8[4:1],,5/3,,6,
,8h[6:1]/2-5[4:1],,8/2,,7,,6h[6:1]/4-1[4:1],
,4/6,,7,,7,,7/2,
1,8-6[6:1],,8,,1-3[8:1],8,1,
7,8h[4:1]/1h[4:1],,,,2/7,,1bs5[8:3]/8bz4[8:3],
{4},,,{16},{48},{6}5bh[4:1]/4bh[4:1],
{12},,,4,5,,6/3,3/6,,7/2,8h[6:1]/1h[6:1],,,2h[4:1],
,,{3}8h[4:1],{12},3,8<5[4:1],,3,
8,,2,1,,,1>4[4:1],,,{6}4<7[4:1],
{12},7q5qq3[2:1],,,,,,,,,{6}7b>1-6-2-5>3b[4:7],
{12},7h[2:1],,,,,,,,,{6}8h[4:5],
{12},,,,,,,,,,,,,2,
,,5/4,,,4-2[8:1],,,{6}4,
{12}7,1,,2,8,,1,6h[6:1],,,{6}4/7x-5[8:1],
{12},3/7x-4[8:1],,,2/7x-3[8:1],,,1/7x,,,,,{6}5/2,
{12}4,3,,,{6}6,{12}3,4/6,,,5,
5,2,6/1,,3,{4}4s8z4[1:1],4,
{1},{4},{24}D6,
A6,D7,A7,D8,A8,D1,A1,D2,A2,D3,A3,D4,A4,D5,A5,,,E2,
B2,B3,E4,,,E8,B7,B6,E6,,,,,,,,,{4}5h[4:1]/4h[4:1],
{12},,,4/5,,5,{6}4,{12}4,5,,,{6}1/7,
{12}7-4[4:1],7x,,2-5[4:1],{2}2x,
{12},6/4,,{4}8h[2:1],{12}2,2,,{4}1h[4:1],
{8}5xh[8:1],3h[8:1],4h[8:1],3h[8:1],{4}4x-7-1[4:1],4/2,
3,3-5[48:7]/1-5[48:7],3/1,6h[4:1],
{16}7x,8,1,2,3,4,,,{4}4-2[48:7]/6-2[48:7],6/4,
{16},,1x,8,7,6,5,4,8x,7,6,5,4,3,{8}2h[24:7],
{4}6b,7xh[3:1]/1xh[3:1],{12},,{3}8/2h[24:5],
{6}4>1[4:1],{12}1,1<6[4:1],,,{4}3,3xh[1:1],
{16},,,,,,,,B6,B7,{8}E8,,,{1}Ch[4:11],
,{4},,{16},,,{48},{24}B5/B4,
,,,,,4x/5x,
,,,,,3/6,,,,,,6,,,,3/5h[12:1],,3,,,,6/4h[12:1],,6,
,,,,,5/4,,,,,D7/D3,A7/A2,,,,,,1/8,,,,7,,2,
,,,3,,8,,,,1,,6b,,,,5/3h[12:1],,5,,,,2,,2/6,
,,,,,3h[4:1]/7h[4:1],,,,,,,,,,,,1/8<5b[4:1],,,,,,8>3b[4:1],
,,,,,8,,,,,,8w4[1:1],,,,,,8x,{1},{4},{16},,{24},{6}5h[4:1]/1h[4:1],
{12},,,,4,4,4,5,
5,5,{24},6h[4:1]/8-3[8:1],,,,,,8,,,,,,4h[4:1]/6h[4:1],,,,,,,,,5/B6,
B7,,,,,,,{12}4,5,4,{24}5,,,,,3h[4:1]/1-5[8:1],,,,,,{8}1,
{24},,,,,,,,{12}6h[4:1],,,,4,
6,4,5,3,5,3,{6}5,5<3[6:5]/4>6[6:5],{12},,,,,,,,,,,,,,,7b,
3b,5b,{3}1b,{6},,,8h[48:263],
{12},,,,,,,B4,
,,{6}B5,{12},B3,,,{3}B2,
{12},,,,,E2,,,,,,,,E4/B3/B4,
,,,,,,,,{6}B2/B3/E3,
{1},,{12},1h[4:21],
,,,,,,,,,A6,
,,,,,D7,,,,,,,,,,,{3}B7,
{12},,,,,B4/E5,
,,,,,,,,{6}E7/B6,
{12},,,,,,,E8/D8,,,,,,,,,{3}A6/D7,
{24},,,,,,,,,,,{8}5b<8b[3.2394##0.2817]*>2b[3.2394##0.2817]*<8[1.5493##2.2535]*>2[1.5493##2.2535],
{1},,{4},,,A5,
,,1h/B6,
4h,5h,5h/B3,6h,
,8h/C,{12},,,,,,,4h[12:35]/5h,
,,,,,,,A6,D7,A7,
{2}D8,A8,
{12},,,A3,D3,A2,{2}D2,
{4}D1,D7,D5,D3,
E2,E8,{12}3xh/E7,3xh/E7,3xh/E7,3xh/E7,3xh/E7,3xh/E7,
,,,6xh/E3,6xh/E3,6xh/E3,6xh/E3,6xh/E3,{3}6xh/E3,
{1}8>5[4:3]*<5[4:3],
{12},,,,,4/5,{6}6/3,{12}7/2,7/2,,1/8,
{4}1/8,1/8h[4:1],{12}1h[48:11],,,,,8,
{6}1>4[4:1],{12}6,1,,7,{24}8,,,,,8<5[4:1],,,,,,5>2[4:1],
,,,,,2<3[8:3],,,,,,,,,,,,,,,,,,,{4}2b<6q4q2>6b[4:7],
2h[2:1],{24},,,,,,,,,,,3h[24:31],
{1},{4},7,
4/6,5-7[8:1],
{6}1/5,{12}2,2,,5/3,,3,5,4,,5/2-4[8:1],
,,{6}6/2-5[8:1],{12},7/2-6[8:1],,,{3}8b/2b,
{6},7h[4:1],{12},3,{6}6,5/2h[3:1],{12},6,
,5,2,3,7,6x/4x,{24},,,,,5z1s5[1:1]*z1s5[1:1],,,,,,5b,
{1},{4},{16},,{24},{12}2-5[12:1],
,6,{6}2,{12}6,7-4[12:1],
,3,{6}7,{12},2/5,,,,,2,1-5[12:1],
,7,{6}1/8,{12}2x,8-4[12:1],,7x,8/1-5[8:1],,,1b,
{24},,,,,4x>8[6:1],,,,{8}8xq6[4:1],,6xq3[4:1],,3x<6[4:1],
,6x<2[8:3],{24},,,,,,,,,,,,,,,,{12}1,
8,1,8,1,8,1,{6}8,{12}7,5,{6}6h[4:1],
,4/5-8[12:1],{12},3b/5b,{24},,,3,,3,,,,,{12}2/6,
2/6,2/6,,3/7,3/7,,4/8,4/8,,4/8,4/8,7h[12:1]/3h[12:1],
,2/6,2/6,1h[12:1]/5h[12:1],,8h[12:1]/4h[12:1],,,6b/2b,,,3/7-2[6:1],
,,{6}7/3-6[6:1],{12},3,,,,,4/5,5,
{6}4,{12}3,4,5,6,3,3,{6}5/4,7bp6>5b[4:3]/2qq3<4[4:3],
{1},{16},,{8}3h[4:1],
,6h[4:1],,4,{48},,,,,,,C,,,,,,,,,,,,,{6}C,
{12},C,,,,,,C,
,,,,,,,,{3}C,
{1},{16},,{8}C,
,,,,,5bp1p4<5b[2:1],
E
