&title=Last Desire
&artist=黒崎真音
&first=0
&des=地球救济猎人
&lv_5=13+
&inote_5=(170)
{1},
{16},,,,,,,,,,,,,,4,5,
{8}6/2,6/2>5[8:1],,7-4[8:1],,1-5[8:1],,8-5[8:1],
{8},2,1,8z4[4:1],,5,5,,
{16}7,3,6,4,5,3,4,2,8,1,7>5[32:7],3,6,,2b,,
{8},,8/1,,6/5,7<4[8:1],8,1b,
{8},1/2,3,4,5/6,7,8-4[8:1],,
{8}3b,,5/2,,4/3,2>5[8:1],1,8b,
{8},7/8,6,5,4/3,2,{16}1-5[8:1],8,1,8,
{8}1b,,7/4,,6/5,7p3[8:1],8,2b,
{8},1/2,3,4,5/6,7,8-5[8:1],,
{8}4b,,4/2,,3/4,2q6[8:1],1,7b,
{16},,7/8,,6,,3,4,2,,6,5,7,,8/1,,
{4}2/6V47[8:5],2,2,2,
{8}8<5[8:1]/3,,2h[8:1],,1/4-6[8:1],,2,,
{4}7/3V52[8:5],7,7,7,
{8}1>4[8:1]/6,,7h[8:1],,8/5-3[8:1],,7,,
{4}2/6V48[2:1],2,2,2,
{8}8<5[8:1]/3,,2h[8:1],,1/4-7[8:1],,2,,
{8}8/3V51[8:3],,8,,7,,6,1bs5[8:3],
{16},,,,,,,,,,6,5,4b/7b,,,,
{8}4h[4:1]/3,,2-4[8:1],,4,5v2[8:1],,7<4[8:1],
{16},,1,,2,,3,4,3>8[8:1],,3,,5b,,,,
{8}5h[4:1]/6,,7-5[8:1],,5,4v7[8:1],,2>5[8:1],
{16},,8,,7,,6,5,6<1[8:1],,6,,4b,,,,
{8}4/3,5/2-8[8:1],,6-2[8:1],,2,3,4>1[8:1],
{16},,7,,6,,5,1,5-8[8:1],,5,,3b,,,,
{8}2V48[4:1],2,8,7,6V84[4:1],6,1,2-5[8:1],
{8},5,6,7-4[8:1],,4,3w7[8:1],,
{4}3b,,,8V25[1:1]/2,
{4}4h[4:1],,3h[4:1],,
{2}2h[2:1],8h[2:1],
{2}6h[2:1],5h[4:1],
{4}4h[4:3]/2b,,,1V74[1:1],
{4}5h[4:1],,6h[4:1],,
{2}7-3[4:1],1s5[4:3],
{8}5h[8:1],,6h[8:1],,,7,8,1,
{4}8b-5[2:1]/2b,4,4,4,
{4}2-4[8:1],5,7-5[8:1],4,
{4}1>4[8:1],4,8<5[8:1],5,
{8}2-6[8:1],,7,,1/8z4[8:1]*v6[8:1],2/7,8,,
{8}2-8[8:1],2,8,7,6-2[8:1],6,2,3,
{16}4V28[16:3],,4,,8,,7,,6,,6h[4:1],,{24}7,8,1,2,3,4,
{8}5/8,5/8,1/2,1/2,4/3,5/6,7/8,1/6z2[16:3],
{8},1,1,,5/2,4-7[8:1]/3-8[8:1],,4b/3b,
{16},,6/2,,5/3,,4,5,4,,3>5[32:7],,2/4,,6h[4:1],,
{16},,,,7/4,,6,5,7-3[8:1],,8,,2>5[8:1]/7,,,,
{16}2/6-2[8:1],,,,8<5[8:1]/6,,,,8/3V17[16:3],,2,,5/3,,6V48[4:1],,
{8},4,3,2<4[32:7],,7b/2b,,,
{8}5<8[8:1],4,3,3h[2:1],,7,6,5,
{16}4>1[8:1],,5,,6,,6h[2:1],,,,8,,8,1,2,3,
{8}6/4,7-5[8:1],7,7/2,1-5[8:1],1,7/1,6V82[16:3],
{16},,2,3,4,,4h[8:1],,{24}1,8,7,{32}6/4w8[8:1],3,2,1,8,7,6,5,4b,,,,
{16},,2/6,,5<8[32:3]/4,,3,4,{32}1b,,,,1>7[32:7],2,3,4,,,,,1b,,,,
{16},,8,,7/1,,3,4,2-6[8:1],,1,,7<4[8:1]/2,,,,
{16}7/3>8[8:1],,,,5-1[8:1]/3,,6,6,5/3V17[16:3],,4,,3/6,,5h[16:5],,
{16},,8,1,2/6,7/3,8-4[8:1]/4,,,,8,,2,2,5,5,
{8}3-5[8:1],3,7-3[8:1],7,1-4[8:1],1,5-1[8:1],5,
{8}2-8[8:1],2,7-3[8:1],7,4-6[8:1],4,8,8,
{8}7/1b-5[8:1],4/2,1b/6b,7,8b-4[8:1]/4,7/5,8b/3b,1b>8[2:1]*<2[2:1],
{4},,,1,
{8}8b/6b,4b/2b,7b/5b,1b/3b,7b/4b,1b-5[8:1]/5b,7b/3b,1bV36[8:19]/5bV72[8:19],
