&title=鬼女紅妖
&artist=Earliri
&first=0
&des=黒い狐
&lv_6=14+
&inote_6=(165){1},
(82.5){8}4b-2-8<6v4b[8:8]/5b-7-1>3v5b[8:8],,
(165)
{8},,,,,,,,,,,,,,,,,,,,Ch[8:8],,,,,,,,
{16}5b,,,2,4,,1,,1h[8:1]/5h[8:1],,,6,8,,5,,1h[8:1]/5h[8:1],,,4,3,,1,,1/5h[8:1],,,8,7,,5,,15,,4,3,4,,1,,15,,8,7,8,,5,,15,,4,2,4,,1,,15,,8,6,8,,5,,
(82.5){32}5b-2[16:1]/1,,,4,2,,1,,5/1-6[16:1],,,8,6,,5,,5-2[16:1]/1,,4,3x,4,,5,,5/1-6[16:1],,8,7x,8,,1,,5-2[16:1]/1,,4,2x,4,,5,,5/1-6[16:1],,8,6x,8,,1V74b[32:4]*V73[32:4],,51,,,,
(165){16},,,,,,,,5,5,5,5,
(82.5){16}5b-2[16:1],6,6,48,7-3[16:1]/5,8,16,,73,,4-7[16:1],15,8,
{32}1,2,34,,3,,
{16}1b-6[16:1],2,2,84,3-7[16:1]/1,4,52,,37,,6,5-7[64:3]/1-3[64:3],4-8[16:1],15,8,15,
,6,6,15,6-2[16:1]/3,2,15,,62,,1-6[16:1],48,5,
{32}4,3,21,,2,,
{16}8x-3[16:1],2,2,37,8/5-1[16:1],5,46,,57,,6,5/2h[8:1],
{32}E4,E5,E6,E7,1,8,1,8,
{16}2b/7b-3[16:1],8,8,62,1-5[16:1]*-7[16:1]/7,2,48,,1,,46,37,2,
{32}21,8,7,6,5,4,
{16}3b-7[16:1],4,4,26,5-1[16:1]*-3[16:1]/3,6,84,,5,,28,7-1[64:3]/3-5[64:3],6-2[16:1],37,2,37,
,8,8,37,1-5[16:1]*-3[16:1]/5,6,28,,1,,64,37,8,
{32}81,2,3,4,5,6,
{16}7x-3[16:1],5,5,46,37,2,1h[8:1]/5,,
(165){16}6bh[8:1],,,7bh[8:1]/5bh[8:1],,,2bh[8:1]/1x,8x,7x,3bh[16:2]/6bh[8:1],,,
(82.5){32}4,5,4,5,4bpp6pp8[16:19],,,,
{16},3,E3,,,,,
,,,,,,,5bqq3qq1b[16:3],,,,,,,,
(165){16}27,,36,,B6h[16:4],D3h[16:8]/A3h[16:9]/E4h[16:10],D7h[16:3]/A7h[16:4]/E8h[16:5],B2h[16:5],,,,,,,,,8bx,,
{24}E7,E6,E5,
{16}2,,3,,45,,6,,8,,2,,25,,3,4,2,,41,,85,,6,,4
,,2,,
(82.5){32}1<6[16:1]/5v2[16:1],,,,2pp5b[16:3]/6,,,,1/5,,,,8,,,,
(165){16}A8h[16:3]/A1h[16:7]/E1h[16:5]/B8h[16:4]/B1h[16:6],,,,,,,,
7,6,5,4,3,2,1,8,3x/7x,,5,5,5,,6,,54,,3,,1,,7,,74,,6,5,7,,58,,14,,3,,5
,,7,,
(82.5){32}8>3[16:1]/4v7[16:1],,,,7<4b[16:1]/3,,,,8/4,,,,1,,,,
(165){16}A8hf[32:1],E1hf[32:1],E2hf[32:1],A2hf[32:1],A4hf[32:1],E5hf[32:1],E6hf[32:1],A6hf[32:1],2,1,8,7,6,5,4,3,
(82.5){16}6bx/2bx-6[16:2],,5,,5,,5,,
(165){16}45,,3,,24,,1,,86,,7,,46,,37,,28,,1,,17,,6,,25,,4,,35,,26,,17,,8,,28,,3,,47,,5,,46,,37,,
(82.5){32}2,8,2,7,2,6,2-5[16:1],5,2,4,2,3,1x,,27,,7,6x,7,5,7,4,7-4[16:1],3,7,2,7,1,8x,,72,,
3bh[16:1],,,2bh[16:1]/4bh[16:1],,,15,,7bh[16:1],,,6bh[16:1]/8bh[16:1],,,51,,
{48}1/5,2x/6x,3x/7x,
{32}4x/8xh[8:1],,
(165){64},
(82.5)
{48}E6,E7,E8,E1,E2,E3,
6,7,8,1,2,3,45,6,7,8,1,2,
{32}3b/7b,,6,5,6-2[16:1],,47,,1<7[16:1]*-5[16:1],,8,,26,,3,,1,,,,46,,37,,1,,7,,86,,15,,2/4-2[16:1],5,61,,8,,68,5,47,,7,8,1,,24,,
7/5-7[16:1],4,38,,1,,31,4,52,,2,1,8,,57,,
6b/2b,,3,4,3-7[16:1],,52,,8>2[16:1]*-4[16:1],,1,,73,,6,,8,,,,53,,62,,8,,2,,13,,84,,
{48}7/5-1[16:1]x,4x,3x,
{32}28,,1,,47,6,52,,2,3,4,,57,,5bh[16:1]/6bh[16:1],,,3bh[16:1]/7bh[16:1],,,18,7,2b/6b,3,4,5,6,7,8,1,
6b/2b,,3,4,3-7[16:1],,52,,8>2[16:1]*-4[16:1],,1,,73,,6,,8,,,,53,,62,,8,,2,,13,,84,,7/5-7[16:1],4,38,,1,,31,4,52,,2,1,8,,75,,
2/4-2[16:1],5,61,,8,,68,5,47,,7,8,1,,42,,
3b/7b,,6,5,6-2[16:1],,47,,1<7[16:1]*-5[16:1],,8,,26,,3,,1,,,,46,,37,,1,,7,,86,,15,,
{48}2b/4x,5x,6x,
{32}7x,1b/8bx,,3,4,3,2b/5b,,,8b/1b,,6,5,6,4bh[16:1]/7bh[16:1],,,3bh[16:1]/8bh[16:1],,,1-5[32:1]/2-6[32:1],12,12,,,,1b/2b,,,,
(165){16}3bh[8:1]/7bh[8:1],,,3bh[8:1]/7bh[8:1],,,E7/B6f/E6/A6/E3/B2f/E2/A2,,,,,,
2bh[8:1]/6bh[8:1],,,2bh[8:1]/6bh[8:1],,,E7/B7f/E8/A7/E3hf[8:4]/B3hf[16:7]/E4hf[8:3]/A3hf[16:9],,1x,8x,7x,6x,,,,,8,7,6,5,
2bh[8:1]/4bh[8:1],,,2bh[8:1]/4bh[8:1],,,E6/B5f/E5/A5/E2/B1f/E1/A1,,,,,,
7bh[8:1]/5bh[8:1],,,7bh[8:1]/5bh[8:1],,,E4/B4f/E5/A4/E8hf[8:4]/B8hf[16:7]/E1hf[8:3]/A8hf[16:9],,6x,5x,4x,3x,,,,,5,4,3,2,
(82.5){32}6b/1b,,7,8,7,,6/1,,52,,3,4,3,,62,,17,,8,71,26,,34,,2-6[16:1]/6,,7>1>3b[32:4],,46,,3<5b[16:1],,25,,,,,,7,,8h[8:1],,6,5,4,,37,,28,,1,28,73,,65,,7-3[16:1]/3,,2<8<6b[32:4],,35,,6>4b[16:1],,47,,,,,,2,,1,,8,,15,,15,26,3h[8:1]/7,,,,1,,8,17,6-2[16:1]/2,,3<5<7b[16:2],,28,,7>1b[16:1],,16,,,,,,3,4,5,,5,,46,,37,,28,,4b,,17,,5b,,26,,3b,5b,3bh[384:1],6h[384:1]
,2h[384:1],7h[384:1],1h[4:1],,,,,,,,6,5,8,3,6b-1[16:1],,,,43,,2,,64,,5,,73,,6,4,5,,62,,1,4,3,6,2,4,3,5,3,4,4,5,4,5,5,6,3,4,2,4,1h[16:1],,6,5,7,5,8h[16:1],,1,,37,,2,4,3,5,3,4,4,5,2,4,3,5,3,4,4,5,4,5,5,6,3,4,4,5,4,5,5,6,3,4,4,5,3bh[32:3],,,7,,1,8,1,72,3,47,6,51,2,36,5,2b/4,3,2/4b,1,8/6b,7,6/8b,5,2b/4,3,2/4b,1/5b,6b/8,7,6/8b,,
{64}D2/A2/A5,D3/D5/A3/A4,D4f,,
{16}
