&title=spasmpdic
&artist=姜米條
&first=0.6499997
&lv_5=14
&des_5=缘雪
&inote_5=
(200){4},{1},,,{4},,,{8}3b/4,
,,3b/4,,,{4}5h[1:1]/2V48[4:3],
{8},,,,,,,,8b/7,
,,8b/7,,,{4}6h[1:1]/1h[1:1],
{8},,,,,,,,5/3b,
,,1/2b,,,{4}2h[1:1]/8>6[4:3],
{8},,,,,,,,5/7b,
,,8/7b,,,{4}7h[1:1]/1h[1:1],
,,,,3h[4:1],
{8}5,3h[4:1],,6,{4}3,
{2}7/1h[2:1],7,
{4}5h[4:1],{8}4,5h[4:1],,3,{4}5,
2/8,2/8,8/2,2/8,
3h[4:1],{8}5,3h[4:1],,6,{4}3,
8/6,7/5,4/6,3b/5b,
2/1,3/8,4/7,5/6,
{8}4,4,6,6,{16}2,1,{8}2,{16}7,8,{8}7,
{4}1bh[8:3]/B7/B6/E7,B4/B5/E5,8/1w5[8:1],1b,
{8}3,3,4,4,{16}2h,3,{8}4,{16}2h,3,{8}4,
{16}2h,3,{8}4,{16}2h,3,{8}4,{16}2h,3,{8}4,{4}5b/2b,
{16}3h,4,6,5,3h,4,6,5,1h,2,8,7,1h,2,8,7,
3h,4,6,5,3h,4,6,5,E8,E1/E7,E2/E6,E5/E3,{4}E4,
{16}1b,8b,1b,8b,1b,8b,1b,8b,1bx,2,{8}3,8,8,
{16}7h,6,{8}5,{16}7h,6,{8}5,{16}7h,6,{8}5,{4}B7/B6/E7h[4:1],
{24}2h[8:1],B5,{12}B4,{24},,2h[8:1],B5,{6}B4,{24}1h[8:1],B5,{12}B4,{24},,1h[8:1],B5,{6}B4,
{24}2h[8:1],B5,{12}B4,{24},,2h[8:1],B5,{6}B4,{24}1h[8:1],B5,{12}B4,,{4}2b/8b,
{16}7bx,6bx,5bx,4bx,3bx,2bx,1bx,8bx,7bx,6bx,{8}5h[4:1],2,2,
{16}7h[8:1]/2h,3,{8}4,{16}7h[8:1]/2h,3,{8}4,{16}7h[8:1]/2h,3,{8}4,{4}B2/B3/E3h[4:1],
{24}7h[8:1],B4,{12}B5,{24},,7h[8:1],B4,{6}B5,{24}8h[8:1],B4,{12}B5,{24},,8h[8:1],B4,{6}B5,
{24}7h[8:1],B4,{12}B5,{24},,7h[8:1],B4,{6}B5,{24}2bx/1bx,,,2bx/1bx,,,{4}3bx/8bx,
{32}A2,D3,A3,D4,A4,D5,A5,D6,A6,D7,{16}A7,,,{4}8-6[8:1],{16}B4h[4:1]/8-2[8:1],E4,,,B4h[4:1]/8-5[8:1],
E5,,,B4h[4:1]/8-3[8:1],E4,,,B4h[4:1],E5,,,{4}E5/E4,
{16}7h[8:1]/E3h[16:1],E4,{8}E5,{16}7h[8:1]/E3h[16:1],E4,{8}E5,{16}8h[8:1]/E3h[16:1],E4,{8}E5,{16}8h[8:1]/E3h[16:1],E4,{8}E5,
{16}7h[8:1]/E3h[16:1],E4,{8}E5,{16}7h[8:1]/E3h[16:1],E4,{8}E5,{16}8h[8:1]/E3h[16:1],E4,{8}E5,{32}8bx,B8,C,B4,{8}A4,
{16}1bx,2bx,3bx,4bx,5bx,6bx,7bx,8bx,1h[8:1]/E7h[16:1],E6,{8}E5,{16}1h[8:1]/E7h[16:1],E6,{8}E5,
{16}1h[8:1]/E7h[16:1],E6,{8}E5,{16}1h[8:1]/E7h[16:1],E6,{8}E5,{16}1h[8:1]/E7h[16:1],E6,{8}E5,{32}1-3[8:1],B1,C,B5,{8}A5,
{16}B5h[4:1]/1-7[8:1],E6,,,B5h[4:1]/1-4[8:1],E5,,,B5h[4:1]/1-6[8:1],E6,,,B5h[4:1]/1-4[8:1],E5,,,B5h[4:1]/1-6[8:1],
E6,,,{4}E5,{24}E6,E7,E8,E1,E2,E3,{4}E4/E5,
{24}E7h[4:1]/3-8[8:1],,,,,,,B6,B5,E5,,,E6h[4:1]/2-7[8:1],,,,,,,B5,B4,E4,,,{1}Ch[4:11]/1b-4-7-2-5-1b[2:5],
{4},,,,,,,,2b/8b,
7/1-5[8:1],1/8,{8}3,3,
{4}2/4,{8}1-5[8:1],8,{4}1/7,{8}2,2,
{4}3/1,{16}7,5,{8}6,{4}5/4,{16}2,4,{8}3,
{4}4/5,{16}1,8,{8}1,{4}2/7,{16}7,8,{8}7,
{4}1/6,{8}2,2,{4}3/4,{8}5,4,
{4}3/6,{8}7-2[8:1]/3-6[8:1],2/6,{4}7/3,{8}8,6,
{4}7,{16}2,1,{8}2,{4}8/3,{16}7,8,{8}7,
{4}6/1,{8}2,2,{4}4/3,{8}5,5,
{4}7/1>5[4:1],7,7,6/7,
7/8,7/1,7/2,3/7,
4,4,5/3h[4:1],5,
3/5h[4:1],3,6/3h[4:1],6,
{8}5b/4b,4,4/6,4,4/7,4,4/8,8/4,
7/3,7/3,6/2,2/6,1/5,1/5,8/4,8/4,
{16}1b,5,2,6,3,7,4,8,7,3,6,2,5,1,4,8,
5,1,5,1,5-8[8:1]*-2[8:1],1,5,1,{2}5b,
{8}2/4,3,6/4-2<1[4:1],5,{2}4-6<7[4:1],
{8}8,8,6/8,6,4/6,4,{4}3b/5b,
{8}2/7,{16}1,8,{8}1,7,{24}1b,2,3,8,7,6,1,2,{6}3,
{8}8/6,7,1/3,2,{4}7-3[8:1],7/5h[4:1],
{8}1<6[8:1],1,5,5,{4}5w1[8:1],5,
{8}3h[4:1],4,6h[4:1],5,2h[4:1],4,7h[4:1],5,
2,2,8,8,7/5,4/6,5/3,4/2,
E1/B8,B6/E7,E5/B4,B2/E3,{24}8b,7,6,2,3,4,8,7,{6}6,
{8}2/8,1,6/8>6[8:3]*>6[8:3],7,{2}8,
{8}1,1,3/1,3,5/3,5,{4}6b/4b,
{8}6/2,{16}7,8,{8}7-5[8:1],5-8[8:1],{2}8-4[8:1]*-3[8:1],
{8}2h[8:1],4h[8:1],6h[8:1],8h[8:1],{4}4bw8[8:1],4b,
{8}2-5b[8:1],6-1[8:1],2,6,{4}4h[4:1],8h[4:1],
{8}6h[4:1],7,8h[4:1],7,6h[4:1],7,8h[4:1],7,
{16}5,,{8}5,3,3,2b/4,5/3,4/6,5/7,
1,1,2-4[8:1],4-1[8:1],{2}1-5[8:1]*-6[8:1],
{8}3/7,5,3/7v8[4:1],1,{2}7/3v4b[4:1],
{4}8bxh[4:1],{8}6h[8:1],5h[8:1],4h[8:1],3h[8:1],{4}2,
{8}2/5,{16}3,4,{8}3,{16}2,,{32}6h[#0.3000031]/A1,D1,A8,D8,A7,D7,,,,D6,A5,D5,A4,D4,,,{8}2b/8b,
7,5,6,{4}4h[4:1]/5<8[8:1],5,
{8}1x/2x,2/3,3/4,4/5,{16}7>2[8:1],5,6,5,{4}7,
{8}3-7b[8:1],2,1,8,8-4[8:1],1,2,3,
5b,5,5-3[8:1],5-2[8:1],5-1[8:1],5-8[8:1],5,5,
2,2,8,8,{32}4h[4:1]/A1,D2,A2,D3,A3,D4,,,,D5,A5,D6,A6,D7,,,{8}1/5,
3,5/1v2[4:1],7,{2}1/5v6b[4:1],
{4}1bxh[4:1],{8}3h[8:1],4h[8:1],5h[8:1],6h[8:1],{4}7,
{8}7/4,{16}6,5,{8}6,3,{32}6h[4:1]/A1,D1,A8,D8,A7,D7,,,,D6,A5,D5,A4,D4,,,{8}7b/1b,
2,4,3,{4}4bw8[8:1],4b,
{8}8x/1x,8/7,7/6,6/5,{16}2<7[8:1],4,3,4,{4}2,
{8}6-2b[8:1],7,8,1,1-5[8:1],8,7,6,
4b,4,4-6[8:1],4-7[8:1],4-8[8:1],4-1[8:1],4,4,
5x,6,7,8,{2}1h[2:1],
{4}C,{8}4,3,{4}2,E4,
{16},,,,2,3,{8}4,{2}E6,
{8}5,6,{4}7,2/8,1h[4:1],
{8}8,7,{4}6,{2}5/4,
{24}3>7[2:1],4,{12}5,,,,,,,,{4}3h[4:1],
4h[4:1],5h[4:1],{2}6h[4:1],
{8}7,5,6,4,{2}5<2[2:1],
{4}E5,E4,{2}3h[4:1]/2h[4:1],
4/1,{4}5/8,5h[4:1]/8<3[2:1],
,,{2}1h[4:1],
{16}5,6,7,8,1,2,3,4,{4}5/1,1h[4:1],
{16},3,4,5,{4}6,3/4,5/4,
{16}6,5,4,3,2,1,8,7,{4}5/6,5/4,
4h[4:1],3h[4:1],2,4/5,
{8}6,6,5,5,{4}4h[4:1],{8}3,3,
{12}8b,7,,5bw1b[8:1],6,,{2}5b,
{8}1/E6h[2:1],2,3,4,{4}B6/B5,E4h[4:1],
{8}6,4,5,4,6,4,5,4,
8/E4h[2:1],7,6,5,5/B3/B4,5,E6h[4:1],3,
3,5,4,5,3,5,4,5,
1/E8h[2:1],1,2,2,{16}3/B7/B8,4,5,6,7,8,1,2,
{8}3h[4:1],6,6,5,{16}3/5,2,1,8,7,6,5,4,
{8}8/E4h[2:1],8,7,7,{4}6h[4:1]/B3/B4,{8}E6h[4:1],3,
3,5,4,5,6,{16}2,3,4,5,6,7,
1/8,2,3,4,5,6,7,8,1/5,6,7,8,1,2,3,4,
5/1,2,3,4,5,6,7,8,{8}1,4,{4}4,
{16}1/5,8,7,6,5,4,3,2,1/5,4,3,2,1,8,7,6,
{8}5/2,3,4,3,4/7,6,5,6,
5-3[8:1],5,1-7[8:1],1,4-2[8:1],4,8-6[8:1],8,
3-1[8:1],3,7-5[8:1],7,{16},,2,3,4,5,6,7,
{8}5/8-4[8:1],8,1-5[8:1],1,2-6[8:1],2,3-7[8:1],3,
4-8[8:1],4,5,5,{16}2h,3,4,5,3h,4,5,6,
{1}7b/3b,
E
&lv_6=1
&des_6=
&inote_6=
(200){1},,,,,,,,,,,,,,,,,,,,,,,,,,,,,,,,,,,,,,,,,,,,,,,,,,,,,,,,,,,,,,,,,,,,{4},,{24}1,
2,3,8,7,6,1,2,{6}3,
E
