&title=oiiaioooooiai[15+]
&artist=旋转猫
&lv_7=转
&des_7=迪拉能
&inote_7=
(125){4},{8},,,,,{24}8x,7,6,
5,4,3,2,1,8,7,6,5,4,3,2,1,8,{12}7,{8},,,,,,,{24}6x,
5,4,3,2,1,8,7,6,5,4,
3,2,1,8,7,6,{4}5,{3},,{24}4x,
3,2,1,8,7,6,5,4,3,2,1,8,7,6,5,4,3,{12}2,
{8},,,,,,,{24}1x,8,7,
6,5,4,3,2,1,8,7,6,5,4,3,2,1,{12}8,{6},,,,,{32}7x,
6,5,4,3,2,1,8,7,6,5,4,3,2,1,8,
7,6,5,4,3,2,1,8,{16},,,,,,,,,,,,,,,{32}7x,
6,5,4,3,2,1,8,7,6,5,4,3,2,1,8,7,6,5,4,3,2,1,8,{16},,,,,,,,,,,,,,,{32}7x,
6,5,4,
3,2,1,8,7,6,5,4,3,2,1,8,7,6,5,4,3,2,1,8,7,6,5,4,3,2,1,8,7,6,5,4,
3,2,1,8,7,6,5,4,3,2,1,8,7,6,5,4,{64}3,2x,1x,8x,7x,6x,5x,4x,3x,2x,1x,8x,7x,6x,5x,4x,3x,2x,1x,8x,7x,6x,5x,4x,3x,2x,1x,8x,7x,6x,5x,4x,
3x,2x,1x,8x,7x,6x,5x,4x,3x,2x,1x,8x,7x,6x,5x,4x,3x,2x,1x,8x,7x,6x,5x,4x,3x,2x,1x,8x,7x,6x,5x,4x,3x,2x,1x,8x,7x,6x,5x,4x,3x,2x,1x,8x,7x,6x,5x,4x,3x,2x,1x,8x,7x,6x,5x,4x,3x,2x,1x,8x,7x,6x,5x,4x,
3x,2x,1x,8x,7x,6x,5x,4x,{8}3x,,,,,,,,,,,,,,{32}3x,
2,1,8,
7,6,5,4,3,2,1,8,7,6,5,4,3,2,1,8,7,6,{16}5,,{32}4x,3,2,1,8,7,6,5,4,3,
2,1,8,7,6,5,4,3,{4}2,{50},1x,8,7,6,5,4,3,2,1,8,7,6,5,4,3,2,1,8,7,6,5,4,3,2,
1,8,7,6,5,4,3,2,1,8,7,6,5,4,3,2,1,8,7,6,5,4,3,2,1,8,7,6,5,4,3,2,1,8,7,6,5,4,3,2,1,8,7,6,5,4,3,2,1,8x,
7,6,5,4,3,2,1,8,7,6,5,4,3,2,1,8,7,6,5,4,3,2,1,8,7,6,5,4,3,2,1,8,7,6,5,4,3,2,1,8,7,6,5,4,3,2,1,8,7,6,
5,4,3,2,1,8,7,6,5,4,3,2,1,8,7,6,5,4,3,2,1,8x,7,6,5,4,3,2,1,8,7,6,5,4,3,2,1,8,7,6,5,4,3,2,1,8x,1,2,3,4,
5,6,7,8,1,2,3,4,5,6,7,8,1,2,3,4,5,6,7,8,1,2,3,4,5,6,7,8,1,2,3,4,5,6,7,8,1,2,3,4,5,6,7,8,1,2,3,4,5,6x,
7,8,1x,2,3,4,5,6,7,8x,1,2,3,4,5,6,7x,8x,1x,2,3,4,5,6,7,8,1,2,3,4,5,6,7,8,1,2,3,4,5,6,7,8,1,2,3,4,5,6,7,8,
1,2,3,4,5,6,7,8,1,2,3,4,5,6,7,8,1,2,3,4,5,6,7,8,1,2,3,4,5,6,7,8,1,2,3,4,5,6,7,8,1,2,3,4,5,6,7,8,1,2,
3,4,5,4,3,2,1,8,7,6,5,4,3,2,1,8,7,6,5,4,3,2,1,8,7,6,5,4,3,2,1,8,7,6,5,4,3,2,1,8,7,6,5,4,3,2,1,8,7,6,
5,4,3,2,1,8,7,6,5,4,3,2,1,8,7,6,5,4,3,2,1,8,7,6,5,4,3,2,1,8,7,6,5,4,3,2,1,8,7,6,5,4,3,2,1,8,7,6,5,4,
3,2,1,8,7,6,5,4,3,2,1,8,7,6,5,4,3,2,1,8,7,6,5,4,3,2,1,8,7,6,5,4,3,2,1bx,2,3,4,5,6,7,8,1,2,3,4,5,6,7,8,
1,2,3,4,5,6,7,8,1,2,3,4,5,6,7,8,1,2,3,4,5,6,7,8,1,2x,3x,4x,5x,6x,7x,8x,1x,2x,3x,4x,5x,6x,7x,8x,1x,2x,3x,4x,5x,6x,7x,8x,1x,2x,
3x,4x,5x,6x,7x,8x,1x,2x,3x,4x,5x,6x,7x,8x,1x,2x,3x,4x,5x,6x,7x,8x,1x,2x,3x,4x,5x,6x,7x,8x,1x,2x,3x,4x,5x,6x,7x,8x,1x,2x,3x,4x,5x,6x,7x,8x,1x,2x,3x,4x,
5x,6x,7x,8x,1x,2x,3x,4x,5x,6x,7x,8x,1x,2x,3x,4x,5x,6x,7x,8x,1x,2x,3x,4x,5x,6x,7x,8x,1x,2x,3x,4x,5x,6x,7x,8x,1x,2x,3x,4x,5x,6x,7x,8x,1x,2x,3x,4x,5x,6x,
7x,8x,1x,2x,3x,4x,5x,6x,7x,8x,1x,2x,3x,4x,5x,6x,7x,8x,1x,2x,3x,4x,5x,6x,7x,8x,1x,2x,3x,4x,5x,6x,7x,8x,1x,2x,3x,4x,5x,6x,{5}7x,
{12},,,,,,,,,,,,,,,,,,,7/3,
,{32}5,{16},{32}4,{4},{16}4,
5,{8},,,,,{24}5bx/4bx,5bx/4bx,5bx/4bx,
{32}6bx/3bx,{16},,,{32}8bx/1bx,{16},,,6/5,{32}5/4,{16},,,{32}3/4,,5/4,{4},,,{48},{24}8bx/1bx,
8bx/1bx,8bx/1bx,7bx/2bx,{8},7/2,
{16},7/3,,6/2,{8},6/2,{2}3/7,
{4},{24}6bx/5bx,5bx/4bx,4bx/3bx,5bx/4bx,{96},,,,,,,,,,,{32}7x/5x,{16},,,{8}2x/5x,7x/5x,
{32},1x/5x,,,,7x/4x,{16},,,,,,,,,,,,,,,,,{12}7x,
6,5,4,3,2,1,8,7,
6,5,4,3,2,1,8,7,6,5,{6}4,
{12},,,,,,,,,,,,,,,,,,,4x,
3,2,1,8,
7,6,5,4,3,2,1,8,7,6,5,4,
3,2,{6}1,{1},{4},,{24},{16}6bx/5bx,
6bx/5bx,
6bx/5bx,{4},{16}4bx/3bx,4bx/3bx,4bx/3bx,,,,7bx/8bx,7bx/8bx,7bx/8bx,{4},{16}7bx/8bx,
8bx/7bx,7bx/8bx,6bx/1bx,{32},7bx/8bx,{8},{16}1bx/2bx,1bx/2bx,1bx/2bx,{32},,,,,,,6bx/5bx,
,5bx/4bx,,4bx/3bx,{4},{16}7bx/8bx,8bx/1bx,{32}1bx/2bx,{4},{32}6bx/7bx,,6bx/7bx,,6bx/7bx,,8bx/5bx,
{4},{12}1,2,3,4,5,{48}6,7,{24},{16}8,1,2,3,
{24}4,5,6,7,8,1,2,{48}3,4,{96},{32}5,6,7,8,1,2,3,4,5,6,7,8,1,2,3,{64}4x,5x,6x,7x,8x,1x,2x,3x,4x,5x,6x,7x,
8x,1x,2x,3x,4x,5x,6x,7x,8x,1x,2x,3x,4x,5x,6x,7x,8x,1x,2x,3x,4x,5x,6x,7x,8x,1x,2x,3x,4x,5x,6x,7x,8x,1x,2x,3x,4x,5x,6x,7x,8x,1x,2x,3x,4x,5x,6x,7x,8x,1x,2x,3x,4x,5x,6x,7x,8x,1x,2x,3x,4x,5x,6x,7x,
8x,1x,2x,3x,4x,5x,6x,7x,8x,1x,2x,3x,4x,5x,6x,7x,8x,1x,2x,3x,4x,5x,6x,7x,8x,1x,2x,3x,4x,5x,6x,7x,{3},,,,,{12}8,
1,2,3,4,5,6,7,8,1,
2,3,4,5,6,7,8,1,2,3,{24}4,{120}5,{60},{120}6,{60},{40}7,8,1,
2,3,4,5,6,7,8,1,2,3,4,5,6,7,8,1,2,3,4,5,6,7,8,1,2,3,4,5,6,7,8,1,2,3,4,5,6,7,8,1,
2,3,4,5,6,7,8,1,2,3,4,5,6,7,8,1,2,3,4,5,6,7,8,1,2,3,4,5,6,7,8,1,2,3,4,5,6,7,8,1,
2,3,4,5,6,7,8,1,2,3,4,5,6,7,8,1,2,3,4,5,6,7,8,1,2,3,4,5,6,7,8,1,2,3,4,5,6,7,8,1,
2,3,4,5,6,7,8,1,2,3,3,2,1,8,7,6,5,4,3,2,1,8,7,6,5,4,3,2,1,8,7,6,5,4,3,2,1,8,7,6,
5,4,3,2,1,8,7,6,5,4,3,2,1,8,7,6,5,4,3,2,1,8,7,6,5,4,3,2,1,8,7,6,5,4,3,2,1,8,7,6,
5,4,3,2,1,8,7,6,5,4,3,2,1,8,7,6,5,4,3,2,1,8,7,6,5,4,3,2,1,8,7,6,5,4,3,2,1,8,7,6,
5,4,3,2,1,8,7,6,5,4,3,2,1,8,7,6,5,4,3,2,1,8,8,1,2,3,4,5,6,7,8,1,2,3,4,5,6,7,8,1,
2,3,4,5,6,7,8,1,2,3,4,5,6,7,8,1,2,3,4,5,6,7,8,1,2,3,4,5,6,7,8,1,2,3,4,5,6,7,8,1,
2,3,4,5,6,7,8,1,2,3,4,5,6,7,8,1,2,3,4,5,6,7,8,1,2,3,4,5,6,7,8,1,3,4,5,6,7,8,1,2,
3,4,5,6,7,8,1,2,3,4,3,2,1,8,7,6,5,4,3,2,1,8,7,6,5,4,3,2,1,8,7,6,5,4,3,2,1x,8x,7x,6x,
5x,4x,3x,2x,1x,8x,7x,6x,5x,4x,3x,2x,1x,8x,7x,6x,5x,4x,3x,2x,1x,8x,7x,6x,5x,4x,3x,2x,1x,8x,7x,6x,5x,4x,3x,2x,1x,8x,7x,6x,
5x,4x,3x,2x,1x,8x,7x,6x,5x,4x,3x,2x,1x,8x,7x,6x,5x,4x,3x,2x,1x,8x,7x,6x,5x,4x,3x,2x,1x,8x,7x,6x,5x,4x,3x,2x,1x,8x,7x,6x,
5x,4x,3x,2x,1x,8x,7x,6x,5x,4x,3x,2x,1x,8x,1bx,2bx,3bx,4bx,5bx,6bx,7bx,8bx,1bx,2bx,3bx,4bx,5bx,6bx,7bx,8bx,1bx,2bx,3bx,4bx,5bx,6bx,7bx,8bx,1bx,2bx,
3bx,4bx,5bx,6bx,7bx,8bx,
E
