&title=ILLEGAL LEGACY
&artist=Seatrus
&first=0.05
&des=Bradish vs. Furple
&des_5=Bradish vs. Furple
&lv_5=14+
&inote_5=(180){4},{32},,,,,,,,,{4},{16},,,{64}A1,B1,
Cf,B5,{32}A5,{1},{16},{8}1h,
{16},1h,,,1h,,,1h,,,{8}1h,
{32}B1f,B2,B3,E4,{1},{4},,,{16},,{32}8,
7x,6x,5xpp2<4[32:53],{1},{4},,,{16},,{8}3h[8:3],
,,2h[4:1],,1,,,{2}Ch[4:3],
1-5[8:1],
{16}8b,,,5,{8}6,5,{16}7,,,4,{8}5,4,
6-3[8:1],3,{4}6v1[8:1],6x>3[8:1],6x,
{16}1b,,,4,{8}3,4,{16}2,,,5,{8}4,5,
3-6[8:1],6,{4}3v8[8:1],3x<6[8:1],3x,
{8}8b/7b,6,5/4,{16}7,8,{8}7,{16}6,5,{8}6,7/8,
1/2,3,4/5,{16}2,1,{8}2,{16}3,4,{8}3,2/1,
7/8,7,7/5,7,2/1,1/2,2-6[8:1]/4-8[8:1],2/4,
{4}2x/4x,{16}5x,6x,7x,8x,1x-5[8:1],2x,3x,4x,{4}5x/1,
Cf,8h[8:1]/7h[8:1],{8}1/6,{16}7,8,{8}7<4[8:1],1/6,
{32}7/8,1x,2x,3x,,,,,{16}3,4,3,6,5,6,3,4,2V46[16:3],7,6,5,
{4}2x,{16}2,1,3,8,7-4[8:1],4,7,5,{4}7,
{8}2x-8[8:1],4,2x-4[8:1],5,{16}2x/5x-1[8:1],6x,{8}7x,5/1,{16}8,7,
{4}6bx/2bx,1h[8:1]/2h[8:1],{8}8/3,{16}2,1,{8}2-5[8:1],8/3,
{32}2/1,8x,7x,6x,,,,,{16}6,5,6,3,4,3,6,5,7<3[8:1],2,3,4,
{4}7x,{8}7/8,{16}2,1,2,8,3,7,{4}4/6-2[8:1]*V83[8:1],
6x,{16}7bxh[8:1]/8bxh[8:1],,,1bxh[8:1]/2bxh[8:1],,,{8}6bx/8bx,{4}3bx/1bx-5b[8:1],
1b`Cf,{8}4-1[8:1],3,{16}4/1,8,7,6,{4}5-3[8:1],
{8}5/8,1,2,{16}3,4,3,4,{8}3,{4}5/2-5[8:1],
{32}2/1,8x,7x,6x,,,,,{16}3,4,3,4,2,1,2,1,{8}3,{16}5,4x,
{8}4x-8[8:1],3,5-1[8:1],{16}7,6,1/5,2,{8}3h[8:3],{24}E3,E4,E5,E6,E7,E8,
{4}E1/Cf,{16}2,1,3,8,4,7,5,6,6h[8:1],,,5x,
{4}Cf,{16}7,8,6,1,5,2,4,3,3h[8:1],,,4x,
{8}8-4[8:1],8,8/2-6[8:1],2,2/7-4[8:1],7,7/1,1,
{16}8,8,8,8,8,8,8,8,8,8h,8h,8h,{4}8-4[8:1],
8b/2-6[8:1]`Cf,2/8,{16}5/1,4/8,3/7,2/6,{8}5-8[8:1]/1-4[8:1],2/6,
{64}E1,C,{32}E5,,,,,,,{4}1-6[8:1]/5-2[8:1],{2}1-5[8:1]/5-1[8:1],
{4}8>3[8:1],{32}4/8-4[8:1],5,6,7,,,,,{4}4x/8x,{8}1xh[16:1]/2xh[16:1],1h[16:1]/2h[16:1],
8h[16:1]/6h[16:1],6h[16:1]/8h[16:1],1h[16:1]/3h[16:1],3h[16:1]/1h[16:1],4h[16:1]/8h[16:1],3h[16:1]/7h[16:1],1xh[16:1]/5xh[16:1],1h[16:1]/5h[16:1],
{4}Cf,7/1,{16}4/8,5/1,6/2,7/3,{8}4-1[8:1]/8-5[8:1],7/3,
{64}E1,C,{32}E5,,,,,,,{4}8-3[8:1]/4-7[8:1],{2}8-4[8:1]/4-8[8:1],
{8}7b,{24}5,6,5,{8}6,8b,{24}5,6,5,6,,,{8}1b/2,3,
6/8,5,3/1,4,{16}8bh[8:1]/6bh[8:1],,,1bh[8:1]/3bh[8:1],,,{8}8b/6b,
{64}A8,B8,Cf,B4,{16}A4,{1},,,{4},,,{16},,{32}1,
2x,3x,4xqq7>5b[32:53],{1},{4},,,{16},,{8}6h[8:3],
,,7h[4:1],,8,,,1/Ch[4:3],
,,7,8-4[8:1],1,{4}8,
{16}1b,,,4,{8}3,4,{16}2,,,5,{8}4,5,
3-6[8:1],6,{4}3v8[8:1],3<6[8:1],3,
{16}8b,,,5,{8}6,5,{16}7,,,4,{8}5,4,
6-3[8:1],3,{4}6v1[8:1],6>3[8:1],6,
{8}1b/2b,3,4/5,{16}2,1,{8}2,{16}3,4,{8}3,2/1,
8/7,6,5/4,{16}7,8,{8}7,{16}6,5,{8}6,7/8,
2/1,2,2/4,2,7/8,8/7,7-3[8:1]/5-1[8:1],7/5,
{4}7x/5x,{16}4x,3x,2x,1x,8x-4[8:1],7x,6x,5x,{4}4x/8,
Cf,{16}1h,8h,1h,8h,1h,8h,1h,8h,1h,8h,1h,8h,
1,2,3,4,1,8,7,6,8,7,6,5,4/8-4[8:1],3/7,2/6,1/5,
{8}4/8<5[8:1],6,8>3[8:1],2,8-5[8:1],{16}6x,7x,{8}8x-3[8:1],{16}2x,1x,
{8}8x,{16}4,5,{8}6,{16}8x,8x,7,6,5,4,7x/3x-7b[8:1],8x/4x,1x/5x,2x/6x,
{4}7x/3x,{8}8x/6x,{16}7,7,{8}5,{16}2,2,4>1[8:1],5,6,7,
{4}8/4,{16}8,7,8,6,8,5,8,4,3<7[8:1],2x,1x,8x,
{4}7x,{8}8-4[8:1],7-3[8:1],8-2[8:1],7,8,{16}5,5,
6x,7,8,1,2,3,4,5,{8}8-4[8:1]/6p2[8:1],1,{4}8/6,
Cf,{8}7/8,5/6,7/8,1/2,7/8,5/6,
{16}3,4,3,4,2,5,2,5,{8}6-3[8:1]/1-4[8:1],7/8,{4}6/1,
{32}1b/2h[8:1],8,7,6,,,,,1b/8h[8:1],2,3,4,,,,,{8}7-3[8:1],8,7/4-1[8:1],5,
{32}4/8,7,6,5,,,,,{16}7,8,7,1,7,2,7,3,{4}4v1[8:1]/6v1[8:1],
6b/4b`Cf,{8}7x/8x,6,7/8,5,7/8,{16}4,3,
{8}2x/1x,2/1,7/8,7/8,5/6,3/4,1/2,{16}8,8,
6x,5,6,5,7x,4,7,4,8x,3,8,3,1x,1,2x,2,
3h,3h,3h,3h,3h,3h,3h,3h,3h,3h,3h,3h,{4}4x>1b[8:1],
{32}8b/4b,7x,6x,5x,,,,,{8}7/8,{16}2,1,,3/4,,4,5<8[8:1],4,,8,
{32}1b/5b,2x,3x,4x,,,,,{8}2/1,{16}7,8,,6/5,,5,4>1[8:1],5,,1,
{32}8b/4b,7x,6x,5x,,,,,{8}7/8,{16}2,1,,3/4,,4,5<8[8:1],4,,8,
{32}1b/5b,2x,3x,4x,,,,,{8}2/1,{16}7,8,,6/5,,5,4-1b[8:1],5,,1,
{32}8b/4x,7x,6x,5x,,,,,{16}7,8,,8,6,1,,1,5-8b[8:1],8h[8:1],,5x,
{32}1b/5x,2,3,4,,,,,{16}2,1,,1,3,8,,8,4/7,6,5,4,
{32}1b/5b,2x/6x,3x/7x,4x/8x,,,,,{16}4-7[8:1],6,4,6,{4}4,{16}8,7,8,7,
{8}1/6,{16}2,1/3,,,{8}6/8,{16}5,4,3,2,1/5,6,7,8,
{32}1b,2/8,3/7,4/6,,,,,{8}1/2,{16}3,4,2,5,1,6,8,7,{8}8,
{32}8b,7/1,6/2,5/3,{8}4,8/7,{16}6,5,7,4,8,3,1,2,{8}1,
{32}1b,2/8,3/7,4/6,{8}5,5/6,{16}7,8,6,1,5,2,4,3,{8}4,
{32}4b,3/5,2/6,1/7,{8}8,8/7,{16}6,5,7,4,8,3,1,2,1,2,
{8}8/3,{16}5,6,{8}5,{16}4,3,{8}4,{16}6,8,{8}7,{16}3,1,
{8}2,3/4,8,6/5,1/2,3/4,5/6,7/8,
{16}1,2,8,3,7,4,6,5,8,7,2,6,1,5,3,7,
{12}2h/5h,3h/6h,4h/7h,3h/6h,2h/5h,1h/4h,{4}8w4[8:1],8,
Cf,{16}8,7,6,5,1,8,7,6,{4}5/1qq3[2:1],
{16}1/4h[8:1],,,5h[8:1],,,{8}6,7<4[8:1],8,{4}7/4,
Cf,{8}1/2,{16}3,3,{8}4,5,6/8,7/1,
8/1,5/4,{16}7,8,6,8,5/1-5[8:1],4,3,2,{4}1,
{8}3b/4b,3/4,6/5,5/6,2/1,1/2,8h[16:1]/7h[16:1],5h[16:1]/6h[16:1],
7/8,6/5,2/1,3/4,6/5,8/7,4h[16:1]/3h[16:1],1h[16:1]/2h[16:1],
{16}8b,7,8,7,1,6,1,6,2,5,2,5,{8}3,{16}6,4,
7b,5,6,5,8b,5,6,5,1b,5,6,5,{4}2w6[8:1],
{1}2b`Cf,
{8},8h,{16},8h,,,8h,,,8h,,,{8}8h,
{32}B8f,B7,B6,E6,{1},{4},,,{16},,{32}1b,
2,3,4qq7>5[32:53],{1},{4},,,{16},,{8}6h[8:3],
,,7h[4:1],,8,,,1/Ch[1:1],
,,1,8,7,6,5,
{1}E1/B2/B3/E5/B7/B6,
E
