&title=L.Y.N.N.
&artist=Scarlette
&first=0
&des=O.V.E.R.
&clock_count=4
&lv_5=14
&inote_5=(196)
{4},,,,,,E3h[1:3],,,,E7h[1:2],,,,Ch[1:1],,,,,,
{16}1h[4:1],,,,2h[4:1],,,,3h[4:1],,,,4h[4:1],,,,
5h[1:1],,,,6-4v1[4:1],,,,,,,,,,,,
8h[4:1],,,,7h[4:1],,,,6h[4:1],,,,5h[4:1],,,,
4h[1:1],,,,3-5p1[4:1],,,,,,,,,,,,
8,1,2,3,8,7,6,5,1,2,3,4,7,6,5,4,
A8,A1,A2,A3,A7,A6,A5,A4,E1,E2,E3,E4,E8,E7,E6,E5,
8h[1:1],,,,,,,,4h[4:1],,,,,,,,
5b,,,2b`6b,,,4b`3b,,1b,,,8b`4b,,,3b`7b,,
1/5h[8:1],,2,,34,,5,,45,,6,,56,,7,,
1h[8:1]/8h[8:1],,,,2h[8:1]/3h[8:1],,,,1h[8:1]/8h[8:1],,,,7h[8:1]/6h[8:1],,,,
8/4h[8:1],,7,,65,,4,,54,,3,,43,,2,,
18,,2,,18,,7,,1-5[8:1]/8-4[8:1],,27,,18,,,,
3x/6x,,2,,36,,7,,3>5[2:1]/6,,,,5xh[8:1],,,,
4xh[8:1],,,,3xh[8:1],,,,2xh[8:1],,,,1h[8:1]/8h[8:1],,,,
27,,6,,27,,3,,81,,27,,36,,45,,
45,,3,,45,,6,,4-8[8:1]/5-1[8:1],,36,,45,,,,
2,,2,,7,,7,,3>8[8:1],4,3,4,3,,5/A1,,
6,,6,,3,,3,,8q5-7[4:1],1,8,2,8,,,,
3>8[4:1],,,,8z4[4:1],,,,4<7[4:1],,,,7q3[4:1],,,,
3p5[4:1],,,,5>1[4:1],,,,1xV37[4:1],,8x,,7x,,,,
6,,6,,5,,5,,4,,4,,3,,3,,
12,,12,,78,,78,,56,,56,,3-8[8:1]/4,,,,
3xb/4-7[8:1],,,,3/4xb,,,,1-5[8:1],,5-1[8:1],,1xb,,,,
7h[4:1],,,,5h[4:1],,,,4h[4:1],,,,2h[4:1],,,,
1,,1-3[8:1]*-5[8:1],,2b/8b,,,,,,4x/6x,,,,5/8-3-7-4[4:1]b,,
,,8b,,,,,,1v6[8:1],,,2,C,,3,,
{12}3x,2,1,6,7,8,4,3,2,5,6,7,
1,1,1,3,3,3,4,4,4,{24}6,5,4,3,2,1,
{16}8/4bv1[8:1]*v7[8:1],,,,,,,,,,35,,,,4/1-6-2-5[4:1]b,,,,1,,,,,,
8v5[8:1],,,1,C,,2,,
{12}3,4,3,6,5,7,2,1,3,7,8,6,
{6}1bh`5xb,2bh`4xb,3bh`8xb,7bh`4xb,6bh`3xb,5bh`1xb,
(120)
{4}7<6-8>1pp3>2v4<5[1:1]/Cf,,,,
,,{32}6xh[2:1],B6,C,B2,A2,,,,{16},,,,
8x-5>3[8:1],,,,,,,,,,,2xv5[8:1]/8xv5[8:1],,,,,
,,,,8x-6-2-4[4:1]/E5h[4:7],,,,,,,,,,,,
7x-5-1-3[4:1],,,,,,,,,,,,,,,,
,,,,,,,,
7<4[12:1],8,6,,57,,1,,2p6[12:1]*v5[12:1],1,8,,2,,,,
4v1[12:1],7,7,,4/6-3[12:1],,6,,8,,1h5[8:1],,7x,,1bx/2bx,,
2x-5[12:1]/8x,2x/8x,2x/8x-6[12:1],,2-6[12:1],,8-4[12:1],,2-7[16:1]*-5[16:1],,8,,2x,,A6/B6/E7/E6,,
8b-3[12:1]b,1b/2b,1b/2b<6[10:1]b,,3b/8b,,4b,,4bv5[12:1]b,,5bw1[16:1]b,,,,,,
(196)
{2}B7/B3/E7/E6/B6/B4/B5/E5/E4/Cf/A5h[1:5],,,,,,,,,,B2/B3/E3/D3/A2/A3,,
{16}8,,7,,3,,4,,6,5,6,,7,,8,,
2p5[4:1],,,,5>3-8[4:1],,,,7h[4:1],,,,,,7,,
1,,1,,28,,,,3,4,3,,24,,,,
1-5-1[4:1]/5,,,,6h[4:1],,,,,,6,,78,,18,,
12,,3,,4,,56,,7,,8,,1/2-5[8:1],,,,
2,,1-6[8:1],,1,,3-8[8:1],,,,3,,4,,5,,
6h[4:1],,5h[4:1],,,,7h[8:3],,,,,,6,,,,
3h[4:1],,4h[4:1],,,,2h[8:3],,,,,,1b<6[8:1],,,,
3-8[8:1],,,,,,4<7[8:1],,,,,,8b,,,,
1>4[4:1],,,,4<7[4:1],,,,7>2[4:1],,,,2pp5[2:3],,,,
{1}6pp1[4:5],,
{1}B6h[1:2]/B3h[8:17]/B5h[8:19]/B4h[2:5]/E6h[4:11]/E4h[4:11]/E5h[8:21],,,
{16}2-7[8:1],,7-1[8:1],,2,,6,,6,,2-6[8:1],3,74,,2/1-5[8:1],,
1,,3-8<5[4:1],,,,3xbh[4:1],,,,,,2,,2,4,
3-1[8:1],,,,3,,4h[8:1],,,,48,,1>4[8:1]/5<8[8:1],,,,
1b-5[12:1]/5b-1[12:1],,,,,,,,2h[16:3],,,1,3,,4,,
5/7-4[8:1],,1,,7>2[8:1],,3,,7V53[8:1],,4,4,7,,2,,
1p5[4:1],,,,5p1[4:1],,,,1V73[4:1],,8,,7,,,,
5-7[8:1],,5-3[8:1]b,,5-1[8:1]*-1[8:1],,,,,,,,,,2,,
2,4,2,4,3,4,3,4,1-5[8:1],4,3,4,1b,,,,
7-3[8:1],,3>8[8:1],,7,,4,,4,,7,6,5,3,2,1,
4/8-6[8:1],,6x-2<1-4[3:1],,,,5xbh[4:1],,,,,,,,7,5,
6-8[8:1],,,,6,,4h[8:1],,,,1<6[8:1]/5>2[8:1],,,,1q5[8:1]/5q1[8:1],,
,,,,,,,,24,,,35,,,46,,
7bh[4:1]/8b,,,,6-1[8:1],,5,,46,,4,,3,,3,,
1-4[8:1]/2,,,,1/2-6[8:1],,,,5h[2:1]/2,,,,7x,,,,
{32}E7,E8,E1,E2,E3,E4,E5,E6f,{16}8xh[1:1],,7x,,7x,,,,6x,,{32}E7f,B7f,B8f,E1f,
{16}A1f,,,,,,,,4h[4:1]/5h[4:1],,,,,,,,
3,4,3,4,2,5,2,5,3,4,3,4,1,6,1,6,
3,4,3,4,8,7,8,7,1,6,2,5,3,4,3,4,
2,5,1,6,8,7,8,7,1,8,2,1,3,8,4,7,
5,6,5,6,2,1,2,1,3,4,3,4,8,7,8,7,
1,6,2,7,3,8,2,1,3,8,2,1,4,5,3,6,
27,E3/E7,B6/B3,B5/B4,E5,,,,2h[8:1],,6,,2h[8:1],,5,,
4/2-4[8:1],,,,4-8[8:1],,,,7,,,6,,,25,,
5/4V28[4:1],,,,8v5p1[3:1],,,,6b,,,7b,,,7b,,
6,5,6,,7h[4:1]/4h[8:1],,,,3,4,25,,2h[8:1],,8h[8:1],,
2,,3h[4:1]/7h[4:1],
,,,,,2,4,3,7,8,6,2,1,
3b,8,1,8,1,8,1,8,3,8,1,8,1,8,1,8,
2,7,3,6,3,5,4,5,2,4,3,4,{32}B2,B3,B4,B5,B6,B7,B8,B1,
{16}B2f,,,,6xh[4:1],,,,,,27,,7h[8:1],,3h[8:1],,
7,,4h[4:1]/6h[8:1],,,,5h[4:1],,3,,4>1[12:1],5,,,7h[4:1]/4,,
E8,E7,E6,E5,7/E4,6/E3,5/E2,4/E1f,3,2,1,8,7,6,5,4,
1b,3x,2,8b,6,7,2b,3,{32}8b,7,6,,,,2b,3,4,,,,5b,,,,
5xb,4xbh/6xbh,3xb/7xb,2xbh/8xb,1b>1>4[1:3]*>5-8[32:55]b,
