&title=AlterGate
&artist=MisoilePunch♪ ~タケノコ添え~
&first=0.02
&des=ペースト絵
&lv_5=14+
&inote_5=(199){4},,,,{1}B3/B4/B7/B6/Ch[1:7],
1-3-5-7-1[1:2],
,,1<1[4:11],
,,{4},,{16}1,
5,1,5,1,5,1,5,
2,4,2,5,2,6,3,5,3,6,3,7,3,6,4,7,
4,8,4,7,5,8,5,1,4,8,3,7,2,6,3,5,
4,6,4,7,4,8,3,5,3,6,3,7,2,4,2,5,
2,6,1,4,1,5,1,6,{12}8,8,6,6,4,4,
{16}2/1h[16:1],,,3/8h[16:1],,,{8}7/4h[16:3],{16},A3f,,,7/8h[16:1],,,6/1h[16:1],
,,{8}2/5h[16:3],{16},A6f,,,{8}4x/3x,2x/5x,6x/5x,4x/7x,
{48}8b/1x>8[3:2]*<2[3:2],E8/E2,B7/B2,B6/B3,{12}E6/E4,{4},,,{16},{48},{16}E3,
E4,E2,E7,E6,E8,A3,A4,A2,A6,A5,A7,B4/B3,B6/E7,B2/E3,B8/B7,
{4}Cf,{8}1x,1x<3[4:5],,1xh[8:3],,,,,2,
2,,,{4}2V48[2:1],
2,5,7<4[8:1],A7,
1>4[8:1],A1,{8}5x,6/4x,{4}7x/3h[4:1],
8,{8}8,8>6[4:5],,8h[8:3],,,,,7,
7,,,{4}7<5-1[2:1],
7,4,{8}3,{16}2,8,{8}3-5[8:1],7-3[8:1],
3,7,2,1,{4}8w4[8:1],8,
{8}1,1-7-5-3[8:9],,1h[8:3],,,,,2,
2,,2V48[2:1],,,{4}5,
{8}6>3[8:1],6,1-5[8:1],1,7,7,{4}8>2>4<6<8[2:1],
,,1w5[8:1],1,
{8}8,7,6,5,4/3,2,1,8,
7/4,5,6,7,8/4,3,2,2x,
{16}8,5,6,5,{8}7,{16}1,4,3,4,{8}2,{16}6,5,7,5,
{8}6,{16}2,1,3,1,{8}2,4h[8:1],5h[8:1],6h[8:1],7h[8:1],
{4}8>6[2:3],7,7,7,
6,5,4,3,
{8}2h[8:1],{16}1,8,{8}7h[8:1],{16}2,3,{8}4h[8:1],{16}8,1,2,3,4,5,
6/1,2,3,4,5,6,7,8,1/5,4,3,2,1,8,7,6,
{4}5/2>8[4:3],8,6,4,
{6}4h[12:1],1h[12:1]/5h[12:1],6h[12:1]/2h[12:1],{48}3,,,4,,,{16}5,6,7/3x,8/4x,1/5x,2/6x,
{32}3/7x,E4/E8,B4/B8,B5/B1,{8}E6/E2,{32},,,,4/8,3/7,2/6,1/5,,,,,,,,,1>7[2:1]*<3[2:1],B1,C,B5,{8}A5f,
{16},,,,,,,,,,,,3,4,3,4,
{4}2h[4:1],{8}7,6/2h[4:1],{16},,4,3,2,1,8,7,
{4}6/2,{8}2/6,{16}6/2,7/3,8/4,5/1,6/2,7,8,1,2,3,
{4}8/4h[4:1],{8}7,7/3h[4:1],,6,{4}6/2h[2:1],
B5/E5,E3/B3,2/8,3/7,
{16}6,5,7,5,{8}6,{16}3,4,1,4,{8}3,{16}8/6,1,2,3,
4/5,6,7,8/4,3,2,7/1,6,5,1,4,2,8,4,7,5,
6h[8:1],,,1,1/7h[8:1],,,2,2/6h[8:1],,,3,3/5h[8:1],,,4,
4,3,4,2,4,1,4,8,4,7,4,6,4<4<4[4:11]*-8[8:1],5,4,4,
{64}4,Cf,{1},,{4},,{16},,,{32},{8}5h[16:1],
5h[16:1],
5x,4/6,3,2x/4,3-7[8:1]*-7b[8:1],1,3x,{16}1x,1x,
{8}8/2,{16}3,4,{8}3,7/1,{16}6,5,{8}6,4/8,{16}2,1,
{8}2,4/8,{16}6,5,{8}6,{16}8,6,7,1,3,2,,,{8}7/8,
{16}3,4,{8}2,1/2,{16}6,5,{8}7,7/8,{16}2,4,
{8}3,5/1,{16}7,5,{8}6,{12}4/8,7/3,6/2,5/1,{24},{8}3h/7h,
{16}1,4,3,4,{8}1,{16}7,5,6,5,{8}8,{16}2,4,2,4,
{8}1,{16}7,5,7,5,{8}8,{16}2,1,2,3,{8}2,{16}7,8,
7,6,{8}7,{16}3,5,2,6,{8}1,{32}8b,1/7,2/6,3/5,{64},,,,1bs5<7V58b[16:39],8bz4>2V41[64:155],{32}2/7,3/6,4/5,{1},,{4},,,{16},E3,
B3,B4,E5,
E1,B8,B7,E7,A5,A4,A3,A2,{8}1xh[4:3],,,8bh[8:3],
,,,,2b,5,{32}2b,1,,8,{8}6,
{16}2b/6-2[8:1],7/3,8/4,1/5,{8}2bx/6bx,8,7b,2,{32}7b,8,,1,{8}3,
{16}7b/3-7[8:1],2/6,1/5,8/4,{8}7bx/3bx,1,2b,7,{32}2b,1,,8,{8}6,
{16}2b/6-2[8:1],7/3,8/4,1/5,{8}2bx/6bx,8,7b,2,{32}7b,8,,1,{8}3,
{16}7b/3-7[8:1],2/6,1/5,8/4,{8}7bx/3bx,1,{16}1b,4,3,4,2b,6,5,6,
1b,4,3,4,2b,6,5,7,1b,4,3,5,2b,6,5,7,
1b,4,3,5,{8}2h[4:1],7,8-5[8:1],5,5-2[8:1],2,
{4}2-4[8:1]*-7[8:1],A2,{16}8,3,7,2,6,1,5,8,
{2}4bw8[8:1],{16}3,,,3,{8}5,2,
{4}6/1,7/1>6[4:1],8,8V62[4:1],
1,1h[4:1],{8}2,8,7/2,8,
1,6,{4}2>5[8:1]/8<5[8:1],2/8,4/6,
3/7,2/8,{16}2,5,2,5,{8}1b,{16}7,4,
7,4,{8}8b,{16}1,5,2,4,{8}3b,{16}8,4,7,5,{8}6b,
{24}1b,E2,E3,E4,E5,E6,{32}E7,E8,E1,{96}E2,,E3,,E4,,E5,,E6,{16}Cf,,,8x,1x,8,1,8,1,
8,2,7,1,8,3,6,1,{8}8,7/2,1,2/8,
{4}3-8[8:1]/7-4b[8:1],3b/7b,{8}2b,5,{32}2b,1,,8,{8}6,
{16}2b/6p2[8:1],7/3,8/4,1/5,{8}2bx/6bx,8,7b,2,{32}7b,8,,1,{8}3,
{16}7b/3q7[8:1],2/6,1/5,8/4,{8}7bx/3bx,1,2b,7,{32}2b,1,,8,{8}6,
{16}2b/6p2[8:1],7/3,8/4,1/5,{8}2bx/6bx,8,7b,2,{32}7b,8,,1,{8}3,
{16}7b/3q7[8:1],2/6,1/5,8/4,{8}7bx/3bx,1,{16}2b,4,3,4,2,4,{8}2bxh[4:1],
5,6,{16}6b,5,7,5,6,5,{8}7bx,{4}6-1[8:1]/2x-5[8:1],
{2}2-7[8:1]/6-3[8:1],{16}2b,1,3,1,2,1,{8}3bxh[4:1],
8,7,{4}6/2,{12}1,1,4,2,2,5,
{16}3,,,4,{8}6,7,{2}4<4<4[8:29]/8pp5[4:5],
,,,4pp4b[8:13],
{1},{4},,{16},,{24},8b,
7,{12}6,{24}1b,2,{12}3,
{24}7b,6,{12}5,{24}2b,3,{12}4,{24}8b,7,{12}6,{24}1b,2,{12}3,{24}7b,6,{12}5,{24}2b,3,{12}4,
{24}8b,1,2,3,1b,8,7,6,5,4bx/8b,,,{2}2b/6b,
1h[4:5],7p4[4:3],
{8},,,,1-5[8:1],1,7-3[8:1],7,
4-1[8:1],4,8,8,2-6[8:1],2,8-4[8:1],8,
5-2[8:1],5,1,1,8<5[8:1],8,4-8[8:1],4,
6-2[8:1],6,1,1,7<4[8:1],7,3-7[8:1],3,
5-1[8:1],5,4,3,2,8-4[8:1]/2-6[8:1],,2/8,
,,2,1-5[8:1]/6-2[8:1],,1/6,{4}Cf,
{8},,7,6,5h[4:1],4,3,2h[4:1],
1,8,7h[4:1],6,5,4,3/7,1/5,
{16}E2,,,C,,,{8}E6,1/7b,{16}2,4,{8}3,4/5,
{16}6,5,{8}7,8/4,{16}2,1,{8}3,4/7,{16}5,5,{8}6,
{16}7,8,1,2,3/8,7,6,5,{8}1b/4,{16}2,4,{8}3,4/5,
{16}6,5,{8}7,8/4,{16}2,1,{8}3,4/3,{16}6,5,{8}7,
{16}8,7,6,5,4/7,8,1,2,{6}3b/6h[12:1],2h[12:1]/C,8h[12:1]/C,
5b/4h[12:1],6h[12:1]/C,2h[12:1]/C,{12}6b,7b,8b,4b,3b,2b,
{24}8,7,6,5,4,3,{32}1b,2,3,4,5,6,7,8,{16}Ch[32:1],E2,E3,E4,E8,E7,E6,A1,
A2,A3,A8,A7,A6,E4,B6,B2,{32},,,,,,8bx-6<7-4-6[8:5]*-2<1-4-2b[8:5],7bx/1bx,6bx/2bx,5bx/3bx,{16}4b,{4},,,{16},,{24}2x,
6x,2x,6x,2x,6x,
2x,6x,2x,6x,2x,6x,2x,6x,2x,6x,2x,6x,1x,7x,1x,7x,1x,7x,1x,7x,1x,7x,1x,7x,
1x,7x,1x,7x,1x,7x,1x,7x,1x,7x,1x,7x,{198}A7,A1,B7,B1,Cf,B5,B3,A5,A3,
E
