&title=[Hard]Antheia
&artist=ARForest
&first=0
&des=yuyu
&lv_7=lv.10
&inote_7=(192)
{1},,{16}7,,1,,2,3,4,5,,,3,,56,,4,,2,,8,,7,6,5,4,,,34,,{16}8,7,8,7,{8}1,6,{16}2,3,4,5,{8},7,18,2,7,3,{16}6,5,4,3,{16},2,7,1,8,1,8,2,{8}6h[8:1],5,{16}3,5,4,6,{8},5,4h[8:1]/7,7,3h[8:1]/4,5,{16}6,4,5,3,{16},,27,,1,8,1,8,1/7h[8:1],,8,,2,8,1,7,,,2,,3/5h[8:1],,4,,5h[8:1]/6,,7,,6,4,5,3,{16}2,3,4,5,4/6h,3,2,1,
8h,,2,,7,,68,,2,,3,,2,4,3,5,4,,7,,5,,46,,5,,6,,7,5,6,4,5,,3,,1,,26,,17,,28,,1,8,1,8,17,,2,,34,,5,,87,,2,,7,,1,,28,,3,,4,,65,,45,,34,,5,6,7,,17,,6,,5,,34,,45,,56,,4,3,2,,28,,1,,8,,67,,87,,18,,7,6,5,,24,,1,8,1,,5,,46,,37,,28,,1,,8h[8:5]/3,,2,,,,1,,2,,3,,4,5,6,7,3h[8:5],,7,,,,5,,6,,7,,8,1,2,3,7h[8:5],,3,,,,1,,2,,3,,4,5,6,7,2,,1,,28,,1,,28,,1,,2,,3,,24,,6,5,6,,6,,35,,4,,5,,6,,57,,3,4,3,,3,,46,,5,,4,,3,,28,,1,8,7,,6,,7,8,1,,6,,5,,6,,4,,5,,6,,{8},,,,
{1},,{16}3,,4,,5,,3,,,,4,,5,,2,,,,5,,6,,4,3,4,,5,,6,,7,,4,,6,,5,,3,,,,5,,6,,7,,,,,,,,,,8,,7,,8,,1,,2,,8,,1,,2,,,,7,,8,,1,,2,,8,,1,,2,,3,,7,8,7,,1,,28,,1,,2,,3,,,,8,,1,,2,,8h[8:4],,6,5,4,3,2,1,,7,6,5,4,3,2,,
8,,7,,8,,1,,,,7,,8,,1,,,,7,,8,,2,,8,,1,7,8,,1,,2,,6,,5,,4,,8,,1,,8,,7,,,,3,4,3,,6,,2,,1,,7,,8,,4,,5,,6,,3,,,,4,,5,,4,,,,5,,6,,5,,4,,2,8,2,,7,,6,,5,,4,,3,,7,,2,,8,,7,,1h[8:4],,7,6,5,4,3,2,,8,7,6,5,4,3,2,8,,2,1,2,,4,,2,1,2,,7,,2,1,3,,7,,7,,1,,8,,8,,8,,8,,27,,3,4,3,,27,,6,5,6,,3,,6,5,7,,2,,2,,8,,3,1,2,8,1,2,3,4,7,,8,1,8,,2,,1,8,1,,6,,3,4,2,,6,,6,,2,,8,,8,,8,,8,,27,,6,5,6,2,4,3,7,5,6,2,1,3,1,3,7,4,5,4,6,3,4,2,4,2,5,2,6,2,7,2,8b,,6,5,8,,5,,6,5,8,,5,,6,5,8,,5,,6,5,8,,3,5,2,6,1,7,2,8,1,,3,4,1,,4,,3,4,1,,4,,3,4,1,,4,,3,4,1,,6,4,6,5,6,3,5,4,4b,,,,,,6h[8:5],,{8},,,,4,,,3h[8:6],,7,6,5,6,5,4,2,3,4,5,4,7,8,1,8,1,2,1,3,1/7h[8:2],,2,1,,4,5,6,3h[4:1],,6,46,,4,5,6,7h[4:1],,3,4,,5,4,3,2h[4:1],,8,18,,3,4,5,3h[4:1],,7,{64}6h[64:21],,,,,,,,,,,,,,,,,,,,,4h[64:19],,,{8},,5h[4:1],,3,6h[8:3],,,4,,
7/1h[8:1],8h[8:1],1h[8:1],8h[8:1],2h[8:1],7h[8:1],2h[8:1],5h[8:1],3h[8:1],6h[8:1],4h[8:1],5h[8:1],
{16}3,4,5,6,4,5,6,7,2,7,2,5,4,5,4,6,{24}36,,,,4,,,,,5,,,36,,,,,45,,,,2h[6:1]/7h[6:1],,,{16},,1,8,7,,6,5,4,6,3,5,4,5,4,6,{24}36,,,,4,,,,,5,,,36,,,,,18,,,,2h[6:1]/7h[6:1],,,{16},,36,,5,4,5,6,7,2,7,1,8,1,8,2,{24}27,,,,8,,,,,3,,,56,,,,,45,,,,3h[6:1]/4h[6:1],,,{16},,34,,45,,56,,67,,,34,,,5,5,4,,,36,,,4,4,5,,,27,,,27,,2,1,8,1,8,1,7,2,8,3,6,4,5,4,6,4,{24}3/7h[6:1],,,,2h[6:1],,,,,1,,,36,,,,,45,,,,3h[6:1]/7h[6:1],,,{16},,1,2,1,,8,2,7,3,6,4,5,3,5,4,{24}3b/6b,,,,3b/6b,,,,,1b/8b,,,2b/7b,,,,,4b/5b,,,,3b/6b,,,{16},,18,,4,5,4,5,3,,,56,,,3,4,25,,,36,,,6,5,47,,,36,,,3,4,25,,,36,,,7,,35,,4,2,5,1,6,1,7,8,8,8,8,8,8,8,8,1,7,2,8,1,6,3,5,1,7,2,8,1,6,3,8h[1:3],,,,
{4},,,,,,,,,,,,,,,{8}3,5,4,3h[2:1],,4,5,6,{16}2,,,78,,,18,,,,{8}6,5,4,3,5,4,6h[2:1],,4,3,2,{16}7,,,12,,,17,,,,{8}3,4,5,{16}6,,3,4,3,,5,,2,,,7,,,3,,6,,7,8,7,,8,,1,,2,,1,,7,,{32}8/1,2,3,,{8}7,6,5,4,3,2,1,8,1,2,3,4,5,6,7,18,,,,,,,,,,,,E
