&title=スピードと摩擦
&artist=amazarashi
&first=0
&des=ネギラメン
&lv_5=12+
&inote_5=(179)
{1},
{8}
4h[8:14]/5h[8:14],,,,,,,,,,,,,,,,
7h[8:14]/4V63[8:9],,,,,,,,,,,,,,
2V47[8:10],,6h[8:14],,,,,,,,,,,,,,
8V26[8:10],,5,5,,5,,5,,5,,5,,5,,5,,5,6-2[4:3],4,,4,,4,,4,,4,,4,,4,,
{16}4,5,{8}6bqq8[1:1]/3bpp1[1:1],,,,,,,,,,,,2,1,8/3v8[8:1],,
7h[4:1],,1h[4:1],,5h[4:1],,3h[4:1],,4,5,6,3,4,5,6v1[8:1],,2h[4:1],,8h[4:1],,4h[4:1],,
6h[4:1],,5,4,3,6,5,4,3v8[8:1],,7h[4:1],,1h[4:1],,3h[4:1],,5h[4:1],,
7,7,1,2,5,6,4-1[8:1],,7-4[8:1],,2-7[8:1],,5,5,5-1[8:1],,1-5[8:1],,5-1[8:1],,
3,3,2/4,,7/5,7-5[8:1]/5-1[8:1],,7/5,,2,1,8,7-5[8:1],5-1[8:1],7,4,,2,2,8,
1/7,1-5[8:1]/7-5[8:1],,1/7,,4,4,6,5-1[8:1],7-5[8:1],5,7,,
1,2,3,4,4-2[8:1]*-8[8:1],,4,,7,7,1,2/8,2-4[8:1]/8-4[8:1],,2/8,,5,4,3,
2-4[8:1],8-4[8:1],2,8,,5,6,7,8-4[8:1],,2V48[8:3],2,,,,,
7<8[8:8],6,5,4h[8:9],,,,,,,,,8,,,,
7<8[8:7],6>8[8:6],5,4h[8:9],,,,,,,,,8,,8,,
7<8[8:7],6>8[8:6],5>8[8:5],4,3,,,,5,,5,,4h[2:1],,,,
7<8[8:7],6>8[8:6],5>8[8:5],4>8[8:4],3,,,,5,,,{16}
6,5,7,,7/8,,6/5,,4/3,,{8}2bq6[8:1]/1b,,8,8q4[8:1],,5,5<8[8:1],,4,4p8[8:1],,
7,7-3[8:1],,7/2>5[8:1],,2/1p5[8:1],,3,3p7[8:1],,4,4<7[8:1],,8,8p4[8:1],,
2,2-6[8:1],,2/7<4[8:1],,7/8-4[8:1],,6,6-2[8:1],,4,4-8[8:1],,2,2-6[8:1],,8,
8<5[8:1],,8>3[8:1],,8/5-1[8:1],,2,2>5[8:1],,6,7>2[8:1],,3,4<7[8:1],,8,1>4[8:1],,
5-1[8:1],
6,7b/5,,8,8p4[8:1],,3,2p6[8:1],,4,5<8[8:1],,1,2-6[8:1],,2/7<4[8:1],,7/8q4[8:1],,
5,6q2[8:1],,3,4<7[8:1],,2,3p7[8:1],,5,6-2[8:1],,1>4[8:1]*<6[8:1]/6,,1b,,
5,5-1[8:1],,8,8<5[8:1]*>3[8:1],,8b,,4,4-8[8:1],,1,1<5[8:1]*>5[8:1],,1b,,
3/7,3/7,2/6,1/5,4-7[8:1]/8,,4,8-4[8:1],1-5[8:1],8<5[8:1],1>4[8:1],8-4[8:1],1,
8bp5[1:2]*q3[1:2],,,,,,,,,,,,,,,,,,,,,,,,,,,,,,,4h[8:1]/5h[8:1],,
3,4,5,3,4,5,3,3,6,5,4,6,5,4,6,6,3,4,5,6,5,4,3,4,6,5,3,4,6>3[4:1],,,,
2pp5[4:3],,,6,,6,6,,7qq4[5:3],,,3,,3,3,,2qq7[4:3],,,6,,6,6,,
6,5>2[4:1],1,2<7[4:1],,,,4,3qq8[4:3],,8,8,,7,7,,5pp8[4:3],,1,1,,2,2,
{16}2,3,{8}4>7[4:2],,7,7,,5,5,,4v2[8:3]/6v8[8:3],,,,,,,,
6V82[16:6],,3,2-6[4:1],,4,4,,3V17[8:3],,6,7-3[4:1],,5,5,{16}5,6,
{8}7V51[16:6],,2,1-7[8:1],,3,3,,2q3[4:2]/7p6[4:2],,,,,,,,4q5[2:1]/5,,,,,,,
8<5[4:1],,5>2[4:1],,2<7[4:1],,,,{16}3,4,{8}5q2[4:2],,,,,,,,8w4[2:1],,,,,,,,
2h[4:1]/5b,,6,3,7h[4:1]/4,,3,6,2h[4:1]/5,,6,3,7-5[8:1]/4-1[8:1],,,,
6h[4:1]/8,,1,7,8/2h[4:1],,7,1,6h[4:1]/8,,2,7,1-5[8:1]/8-4[8:1],,,,
7h[4:1]/4,,4,3/6,2/5h[4:1],,2,3/6,7/4h[4:1],,7,6/3,2-4[8:1]/5-7[8:1],,,,
8h[4:1]/2,,3,2/7,1/6h[4:1],,8,1/7,2-6[8:1]/8h[4:1],,2<5[8:3],,,,,,
1,{16}6,5,6,4,5,3,{24}7,6,5,2,3,4,7,6,5/4,3,2,1,{8}
8b-4[8:1],6,6,5,7-3[8:1],4,4,5,1-5[8:1],3,3,2,6-1[8:1],
4,6,{24}2,3,4,{8}5-1[8:1],8,8,6,5-8[8:1],2,2,4,5-2[8:1],7,7,6,3-8[8:1],5,3,
{24}7,6,5,{8}4<7[8:1],8,1,2<7[8:1],3,4,5>2[8:1],6,7,8<5[8:1],1,2,3>8[8:1],4,
5v2[8:1],6,7b/5b,8,1,2,3/8-4[8:1],7-3[8:1],8,7,2-6[8:1],1-5[8:1],2,1,3,3/7,2/6,1/5,
8b-4[8:1]/4,8,6-2[8:1],6,3-8[8:1],3,5V36[4:1],5,2,2,2,2,3/7,
7<4[8:1]/3,,{24}4b/7b,3,2,{8}1-5[8:1],1,6-1[8:1],6,3-7[8:1],3,
4V63[4:1],4,1,1,1,1,2/6,
2>5[8:1]/6,,{24}5b/2b,6,7,{8}8-4[8:1],8,3-7[8:1],3,5-8[8:1],5,1>4[8:1]*<6[8:1],,1b,,5-8[8:1],5,4-1[8:1],4,8<4[8:1]*>4[8:1],,8b,,
6/2,6/2,7/3,8/4,7/3,6/2,1-5[8:1],8-4[8:1],1>4[8:1],8<5[8:1],1-5[8:1],
8q4[8:1],1b,8bp5[2:1],,,,,,,3,4,3,5,3,4,3,4,3-6[8:1],,5,,5,6-3[8:1],5,,5,
3-7[8:1],6,,6,7-2[8:1],6,,6,1b-4[8:1]/7b-2[8:1],,
