&title=With You
&artist=Cashew
&first=0
&des=With Benren
&des_5=Benren
&lv_5=13+ | 13.6
&inote_5=(170){1},
{8}
3x,5,4,6,2,3,4,5,
4,7,5,6,3,4,5,6,
4,5,3,6,7,6,5,4,
3,6,4,7,E3,E2,E8,E7,
2x,8,1,7,3,2,1,8,
1,6,8,7,2,1,8,7,
B3/E3,E8,B1,B6/E7,E4,B8,Ch[4:4]/B4/B5,,,,,,,{16}D1,D8,D7,,,,
{8}
1xh[4:1]/6x,,7,7h[8:4],1x,2,3,4h[8:3],,
,6,6,,2-5[8:1],2,,8h[4:3],,
E3,E4,,E6,E5,,3h[4:1],,E8,E7,B2,B5,E4,,
8xh[4:1]/3x,,2,2h[8:4],8x,7,6,5h[8:3],,
,2,26,,7,74,,
3b/4xh[4:1],,,6b/5xh[4:1],,,2b/8xh[4:4],,,,,
{16}
E4,E3,E2,E1,E8,E7,E6,,,,
{8}
3xh[4:1]/7x,,6,6h[8:3],8x,1,2,3h[8:5],,,
E1,,E7,,3,2,
6xh[4:1]/1x,,2,2h[8:3],8x,7,6,5h[8:5],,,
E5,E4,E3,E2,
{16}
4x,5,6,7,
{8}
8xh[4:1]/1x,,3,3h[4:2],7,6,5,6h[8:6],,,
,D2,,D3,,{16}8,7,{8}
6xh[4:1]/1b,,,8xh[4:1]/3b,,,
15,1b/5bw1[8:3],,,,,,,2x/8x,,
2V48[4:1],8,27,6h[4:1],,1,1h[4:1],,
7V51[4:1],2,73,4h[4:1],,8,8h[4:1],,
3V51[4:1],8,37,6h[4:1],,2h[4:1],,
7-4[8:1],,78,,1-5[8:1],,18,,4,
6V84[4:1],3,26,1h[4:1],,5,5h[4:1],,
2V84[4:1],5,26,7h[4:1],,3h[8:2],,1,
8xb/2x,7,6,5x/1xb,2,3,4xh[4:4]/6bV48[4:1],,,,,
{16}
D1,D2,D3,D4,D5,D6,D7,,
{8}
3,2x-5-3[4:1],5,26,7h[4:1],,3xh[4:1],,
6,7x-4-6[4:1],3,27,1h[4:1],,6xh[8:3],,
1,8x-3-1[4:1],4,58,6h[4:1],,1xh[4:1],,
7x-1-5[8:3],,E4,,E3,,E2,
6,
7,8xV61[4:1],4,38,2h[4:1],,7h[4:1],,
3,2xV41[4:1],7,62,5h[4:1],,2h[4:1],,
1,
7b/5xh[4:1],,,2b/4xh[4:1],,,8b/3xh[8:3],,,
{16}
E1,E8,E7,E6,E5,E4,E3,E2,E1,E8,E7,,3,2,
{8}
1xh[4:1]/5b,,6,6h[4:1],,4,4h[8:2],,
6,56,,4,4/5h[4:1],,4,3,2xh[4:1]/5x,,7,7h[4:1],,1x-4[8:1],,6xh[8:2]/1x,,5,57,
,3,,15,,
8x/2x,7,7,1x/6x,2,2,3x/7x,6,6,2x/5x,3,3,4x-2[8:1]/8x-4[8:1],,48,,
1x/5x,15,26,26,37,37,48,48,
1x/5x,48,37,26,
{32}
1xh[128:1]/5x,8,7xhb[128:1],6,5xhb[128:1],4,3xhb[128:1],2,
{16}
1x>4[8:1],,,,1b/8x,,,,6,,
4x,4x,4xh[8:1],,6-1[8:1],5x,,5,6x,,3xh[8:3],,,,8,,
7,7,7xh[8:1],,1-5[8:1],6x,,6,1x,,7xh[8:3],,,,4,,
2,2,2xh[8:1],,5-1[8:1],3x,,3,5x,,
4x>8[4:1],,,7,,,6,,5x<1[4:1],,,2,,,3,,
4xh[8:3],,,,,,7,5,6h[4:1],,,,,,5,6,
8x,7,1,6,2x,1,3,8,4x,5,3,6,2x,5,3,,
4x/8x,,6,5,6,,2x/5x,,3,4,3,,2xh[8:1]/8x,,
4,3,6x,5,7,4,8x,1,7,2,5x,3,7,4,6,1,4,2,5xw1[8:1],,,,
{32}
5b,Cf,,,,,,,
{8}
,,1x/6xh[8:1],
{16}
3,4,2,,6,5,7,,4xh[8:1]/8x,,
1x,5,8,4,7,3,6,2,
5x,1,7,3,6,4,8,2,6,3,7,4,6,3,5,2,
7x,8,6,1,5,2,4,3,6x,5,7,4,8,3,1,2,
{16}
8xh[16:3]/3x,,,4,,,25,,
3xh[16:3]/7x,,,5,,,26,,
3x/8x,,,27,,,16,,,7/4h[16:3],,,
1,8,7,6,
5x/1b,,3,4,3,,8x/4x,,6,5,6,,5xh[4:1]/3x-8[4:1],,,,,,
6,,7,,7,,83,,8/3h[8:1],,1-6[8:1],2,1,2,1x,,,,3,,
6x,6x,6xh[8:1],,4-8[8:1],5x,,5,4x,,7xh[8:3],,,,1,,
2,2,2xh[8:1],,1-6[8:1],3x,,3,1x,,2xh[8:3],,,,6,,
7,7,7xh[8:1],,3-8[8:1],5x,,5,3x,,
6xV82[4:1],,,3,,,4,,5xV31[4:1],,,8,,,7,,
6xh[8:3],,,,,,2,4,3h[4:1],,,,,,4,3,
1x,2,8,3,7x,8,6,1,5x,4,6,3,7x,4,6,,
5x/1x,,3,4,3,,7x/4x,,6,5,6,,7xh[8:1]/1x,,
5,6,3x,4,2,5,1x,8,2,7,4x,6,2,5,3,8,4,7,
{8}
2xV48[4:1],1-5[8:1],2,1,,1x/6x,2,3,
6x-4-7[4:1],1-4[8:1],6,1,,8x/3x,7,6,
3x-1-5[4:1],7-1[8:1],3,7,,4x-2[8:1]/8x-4[8:1],,4/8,
{16}
,,E2,E3,E4,E5,E6,E7,E8,E1,E2,E3,7xh[4:1],,,,
{8}
5x-3-6[4:1],8-3[8:1],5,8,,2xh[24:5]/5xh[24:5],,
{24}
2/5,1/4,3/8,
{8}
2x-5[8:1]/7x-4[8:1],,,,C,,,,
{8}
3x/7x,5,4,6,2,3,4,5,
4,7,5,6,3,4,5,6,
2,5,3,6,7,6,5,4,
3,6,4,7,E4,E2,E8,E6,
2x,8,1,7,3,2,1,8,
1,6,8,7,2,1,8,7,
B3/E3/6,5,4,B6/E7/3,2,1,Ch[4:12]/8h[4:12],
