&title=Weave Detonator
&artist=Tatsh & MEGA
&first=-0.5599998
&lv_5=14+
&des_5=WYBXXJ
&inote_5=
(180){4},,,,,,,,,1w5b[4:11],
{1},,,,,{2},{4}8h[4:3],
,,4h[4:5],
,,,,{1}Ch[1:2],
{4},,,,1b>4[2:1],
,,8q5[2:1],
,,,,{1}E6,
{8},,,,,,,,,,2/6,
4/8,,1/5,,,,,,,,,,,{1}Cfh[1:2],
{4},,,,1b-5[8:1],
1/7-3[8:1],7/5V38[8:1],6,
4-7[8:1],4/1-5[8:1],1/8-4[8:1],8/2,
3-8[8:1],3/7-3[8:1],7/8V25[8:1],7,
1-5[8:1],1/4-8[8:1],{8}4/8,7,{4}6/1,
3/8-4[8:1],8/2-6[8:1],2/4V61[8:1],3,
5-2[8:1],5/8-4[8:1],8/1-5[8:1],1/7,
7h/8h,6h/5h,1h/2h,3h/4h,
1h/8h,4h/5h,{16}2,3,4,5,{32}7bh[64:1],6h[64:1],5h[64:1],4h[64:1],3h[64:1],2h[64:1],1h[64:1],8h[64:1],
{8}7-5[8:1],4,7,4,5-1[8:1],2,5,2,
1-6[8:1],3,1,3,6<1[8:1],5,4,3,
2-4[8:1],7,2,7,4-1[8:1],8,4,8,
1-5[8:1],7,1,7,5>2[8:1],6,7,8,
1-5[8:1],3,1,3,5v7[8:1],3,5,3,
7-1[8:1],3,7,3,1<6[8:1],4,3,2,
1-5[8:1],7,1,7,5-2[8:1],7,5,7,
{16}6,5,{8}7,{16}3,4,{8}2,{16}6,5,{8}7,{32}8/1bh[64:1],2h[64:1],3h[64:1],4h[64:1],5h[64:1],6h[64:1],7h[64:1],8h[64:1],
{4}1b-4[8:1],{8}1,1b-6[8:1],,1,{4}5-2[8:1],
7-4[8:1],1-6[8:1],3-8[8:1],2,
8b-5[8:1],{8}8,8b-3[8:1],,8,{4}4-7[8:1],
2-5[8:1],8-3[8:1],6-1[8:1],7,
1b>4[8:1],{8}1,1bq5[8:1],,1,{4}1-6[8:1],
7-4[8:1],5-2[8:1],3-8[8:1],1,
8b<5[8:1],{8}8,8bp4[8:1],,8,{4}8,
{16}2,3,4,5,8,7,6,5,1,2,3,4,{32}7h[64:1],6h[64:1],5h[64:1],4h[64:1],3h[64:1],2h[64:1],1h[64:1],8h[64:1],
{4}7h[1:1],5,5,5,
3h[2:1],5,{16}A5,A6,A7,A8,A4,A3,A2,A1,
{4}6h[1:1],4,4,4,
2h[1:1],8,8,8,
7-5[8:1],B4/A4,7-4[8:1],B3/A3,
7-3[8:1],B2/A2,7-2[8:1],A1/B1,
3-1[8:1],B8/A8,3-8[8:1],B7/A7,
{16}5,6,7,8,4,3,2,1,7,6,5,4,{32}1h[64:1],2h[64:1],3h[64:1],4h[64:1],5h[64:1],6h[64:1],7h[64:1],8h[64:1],
{8}1>4[8:1],1,8,7,6<1[8:1],6,5,4,
3<6[8:1],3,2,1,8-3[8:1],7-4[8:1],8,7,
2<7[8:1],2,3,4,5>2[8:1],5,6,7,
8<5[8:1],8,1,2,3-8[8:1],4-7[8:1],3,4,
2-5[8:1],1,2/8-4[8:1],1,8/2-5[8:1],1,2/8,8,
7-4[8:1],8,7/1-5[8:1],8,1/7-4[8:1],8,7/1,1,
{16}3,4,2,2,6,5,7,7,2,1,3,3,7,8,6,6,
{32}2,3,4,5,6,7,8,1,2,3,4,5,6,7,8,1,{16}2b/6,6,5,5,4,4,3,3,
{4}6x-2[8:1],{8}6/5,4x-8[8:1],,4/3,{4}2x-6[8:1],
{8}2/1,8x-4[8:1],,8/7,{4}6xw2[8:1],6,
3x-7[8:1],{8}3/4,5x-1[8:1],,5/6,{4}7x-3[8:1],
{8}7/8,1x-5[8:1],,1/2,{4}3xw7[8:1],3,
5x-1[8:1],{8}5/4,3x-7[8:1],,3/2,{4}1x-5[8:1],
{8}1/8,7x-3[8:1],,7/6,{4}5xw1[8:1],5,
{8}8b/4,7,6,1/5,2,3,8/4,7,
{4}6-2[8:1],4-8[8:1],{16}8,7,6,5,1,2,3,4,
{4}5/1b-5[8:1],{8}1,1b>4[8:1],,1,{4}1b-6[8:1],
{8}1,1b-4[8:1],,1,{4}1bw5[8:1],1,
8b-5[8:1],{8}8,8b-3[8:1],,8,{4}8b<5[8:1],
{8}8,8b-4[8:1],,8,{4}8bw4[8:1],8,
1b-4[8:1],{8}1,1b-6[8:1],,1,{4}1b>4[8:1],
{8}1,1b-5[8:1],,1,{4}4bw8[8:1],4,
8b-5[8:1],{8}8,8b-3[8:1],,8,{4}8b<5[8:1],
{8}8,8b-4[8:1],,8,{32}5bw1[16:1],6,7,8,1,2,3,4,{4}5b,
{8}2-4[8:1],1-5[8:1],2,1,3-8[8:1],4-7[8:1],3,4,
1-5[8:1],8-6[8:1],1,8,4<7[8:1],3,2,1,
7-5[8:1],8-4[8:1],7,8,6-1[8:1],5-2[8:1],6,5,
8-4[8:1],1-3[8:1],8,1,5>2[8:1],6,7,8,
3-1[8:1],4-8[8:1],3,4,2-5[8:1],1-6[8:1],2,1,
4-8[8:1],5-7[8:1],4,5,1<6[8:1],2,3,4,
6-8[8:1],5-1[8:1],6,5,7-4[8:1],8-3[8:1],7,8,
5-1[8:1],4-2[8:1],5,4,{32}7,6,5,4,3,2,1,8,{4}7b/3h[4:1],
{8}1-5[8:1],2-4[8:1],1,2,5-7[8:1],4-8[8:1],5,4,
7-3[8:1],8-2[8:1],7,8,4<7[8:1],3,2,1,
8-4[8:1],7-5[8:1],8,7,4-2[8:1],5-1[8:1],4,5,
2-6[8:1],1-7[8:1],2,1,5>2[8:1],6,7,8,
4-8[8:1],3-1[8:1],4,3,8-6[8:1],1-5[8:1],8,1,
6-2[8:1],5-3[8:1],6,5,1<6[8:1],2,3,4,
{16}2,4,3,3,7,5,6,6,3,4,2,2,6,5,7,7,
{32}2,3,4,5,6,7,8,1,2,3,4,5,6,7,8,1,{16}2b/6,6,4,4,6,6,8,8,
{4}4-7[8:1],4/1-5[8:1],{8}1/8,7-3[8:1],,7/2-5[8:1],
,2/1-6[8:1],,1/5,{4}4w8[8:1],4,
6/5-2[8:1],5/8-4[8:1],{8}8/1,2-6[8:1],,2/7-4[8:1],
,7/8-3[8:1],,8/4,{4}5w1[8:1],5,
8<5[8:1],3/8-4[8:1],{8}8/7,6-2[8:1],,6/5-1[8:1],
,5/8-4[8:1],,8/1,{4}2w6[8:1],2,
1>4[8:1],6/1-5[8:1],{8}1/2,3-7[8:1],,3/4-8[8:1],
,4/1-5[8:1],,1/8,{32}7,8,1,2,3,4,5,6,{16}7/1,1,8,8,
{4}2-5[8:1],2/5-1[8:1],{8}5/6,7-4[8:1],,7/4-8[8:1],
,4/1-3[8:1],,1/6,{4}5w1[8:1],5,
4-8[8:1],4/8-4[8:1],{8}8/7,6-1[8:1],,6/1-5[8:1],
,1/4-2[8:1],,4/7,8w4[8:1],7/1,{4}8,
1>4[8:1]/5<8[8:1],1-5[8:1],{8}1/2,3-7[8:1],,3<6[8:1]/7>2[8:1],
,3/7-4[8:1],,7/8,{4}1w5[8:1],1,
8<5[8:1]/4>1[8:1],8-4[8:1],{8}8/7,6h[4:3],,E1,
,C,,E5,{16}8,7,6,5,1,2,3,4,
8,1,7,2,6,3,5,4,7,8,6,1,5,2,4,3,
5,6,7,8,3,2,1,8,5x,6,7,8,1,2,3,4,
2,6,2,6,3,7,3,7,4,8,4,8,5,1,5,1,
5,4,3,2,5,6,7,8,2x,3,4,5,6,7,8,1,
5,2,6,3,7,4,8,3,7,2,6,1,5,2,6,3,
8,7,6,5,1,2,3,4,7x,6,5,4,3,2,1,8,
3,4,3,4,2,1,2,1,4,5,3,6,2,7,1,8,
{32}1h[64:1],2h[64:1],3h[64:1],4h[64:1],5h[64:1],6h[64:1],7h[64:1],8h[64:1],1h[64:1],2h[64:1],3h[64:1],4h[64:1],5h[64:1],6h[64:1],7h[64:1],8h[64:1],1h[64:1],2h[64:1],3h[64:1],4h[64:1],5h[64:1],6h[64:1],7h[64:1],8h[64:1],1h[64:1],2h[64:1],3h[64:1],4h[64:1],5h[64:1],6h[64:1],7h[64:1],8h[64:1],
1x/7x,2x/6x,3x/5x,4x-8[32:13],{4},,,{16},,7/8bh[4:3],
,,6,,,{8}5,{16},4,,,{8}3,2/1,
{16}2/1bh[4:3],,,3,,,{8}4,{16},5,,,5,4,3,2,
{8}1/8,{16}6,5,,5,{8}7,{16}7,4,,4,{8}6,4/5,
8/1,{16}3,4,,,{8}5/2,{16}3,4,,,{8}2/6,5/4,
1/8,{16}7,6,,6,{8}5,{16}5,4,,4,{8}3,4/5,
8/1,{16}2,3,,3,{8}4,{16}4,5,,5,{8}6,7/4,
{24}1/5,2/6,3/7,4/8,,,,,,8/4,7/3,6/2,{4}5/1,{24}1/5,2/6,3/7,4/8,,,,,,8/4,
7/3,6/2,{4}5/1,{24}1-5[8:1]/8-4[8:1],2/7,3/6,4/5,,,{4}8b/1b,
{8}1b-3[16:1],{16}1,5-7[16:1],,5,{8}4-1[16:1],{16}4,8-5[16:1],,8,{8}2-6[16:1],2,
4-8[16:1],{16}4,1-3[16:1],,1,{8}6-8[16:1],{16}6,4-2[16:1],,4,{8}5-1[16:1],5,
2x-4[16:1],{16}2,8-6[16:1],,8,{8}1-3[16:1],{16}1,5-1[16:1],,5,{8}4-8[16:1],4,
7-5[16:1],{16}7,3-1[16:1],,3,{8}8-6[16:1],{16}8,4-2[16:1],,4,{8}5-1[16:1],5,
2x-5[16:1],{16}2,8-4[16:1],,8,{8}1-5[16:1],{16}1,7-4[16:1],,7,{8}3-8[16:1],3,
5-1[16:1],{16}5,4-8[16:1],,4,{8}6-1[16:1],{16}6,2-5[16:1],,2,{8}7<4[16:1],7,
3>8[16:1],{16}3,6v1[16:1],,6,{8}2xv5[16:1],{16}2,7-4[16:1],,7,{8}3-8[16:1],3,
6<1[16:1],{16}6,2>5[16:1],,2,{8}7xv4[16:1],{16}7,3xv8[16:1],,3,,,7x,6x,
{8}5x/2b,{16}1-4[16:1],7-4[16:1],,1,{8}7,{16}2-5[16:1],8-5[16:1],,2,{8}8,1,
4/6,{16}8-5[16:1],2-5[16:1],,8,{8}2,{16}7-4[16:1],1-4[16:1],,7,{8}1,8,
6/1,{16}2-5[16:1],1-6[16:1],,2,{8}1,{16}8-3[16:1],7-4[16:1],,8,{8}7,2,
1/8,{16}7-4[16:1],8-3[16:1],,7,{8}8,{16}1-6[16:1],2-5[16:1],,1,{8}2,7,
8/1,{16}7-4[16:1],3-8[16:1],,7,{8}3,{16}6-1[16:1],2-5[16:1],,6,{8}2,8,
7/3,{16}2-5[16:1],6-1[16:1],,2,{8}6,{16}3-8[16:1],7-4[16:1],,3,{8}7,1,
{16}4,5,3,6,2,7,1,8,3,4,2,5,1,6,8,7,
{24}2,3,4,5,6,7,8/2,3,4,5,6,7,{32}8/1,2,3,4,8,7,6,5,2,3,4,5,8,7,6,5,
{1}Cf,
E
