&title=Brilliant Smile
&artist=Switch
&first=3.85
&des=aoihoshi
&lv_5=13+
&inote_5=(150)
{1},
{16}
E7f/B6/B7,,,,E3f/B3/B2,,,,E8,,E1,,E2,,,,
57,,46,,35,,2/4h[4:1],,,,1b,,1b,,,,
E7f/B6/B7,,,,E3f/B3/B2,,,,E8,,E1,,E2,,,,
57,,8,,24,,1,,3-6b[8:1]/6^3[8:1],,,,3bx/6bx,,,,
1-5[8:1],,2,,61,,7,,8h[16:3],,,5h[16:3],,,6V82[16:3],,
,,2,,3,,4,,5v2[8:1]*-8[8:1],,,,5,,,,
8-4[8:1],,7,,38,,2,,1h[16:3],,,4h[16:3],,,3h[8:7],,
,,B1/A1,,A7/B7,,E3,B3,,E6,B5,,4x,2x,5x,3x,
6b^3[8:1],,2,,16,,8,,4h[16:3],,,1h[16:3],,,3V57[16:3],,
,,8,,1,,2,,3v6[8:1],,,,36,,,,
7^2[8:1],,3,,47,,5,,1h[16:3],,,3h[16:3],,,5,,
,,7b/8b,,,4b/6b,,,3b-1[8:1]/8bv5[8:1],,,,,,,,
17,,,,16,,,,1,,5,,1,,5h[8:1],,
1,,4h[8:1],,1,,3,,1-5[8:1]/3-7[8:1],,,,13,,,,
8-4[8:1],,8,,4,,3,,2^7[8:1],,2,,6,,5h[4:1],,
,,7^4[8:1],,8,,1,,2-5[8:1]*-6[8:1],,,,2,,,,
8^3[8:1],,,,5^8[8:1],,,,2^5[8:1],,,,1,,8-4[8:1],,
,,3^8[8:1],,,,7,,7-3[8:1],,68,,7,,,,
28,,3h[8:1]/7h[8:1],,,,6,5,6,,47,,36,,2x-6[8:1]/5x,,
,,2x/4x-8[8:1],,,,1x/4x,,2,,3,7,4,6,5,,
34,,2,,34,,5,,3-1[8:1]/4,,,,38,,7,7,
8,,6,5,,3,4,3,4h[4:1],,2,,1,,,,
65,,7,,65,,4,,6-8[8:1]/5,,,,61,,2,2,
1,,3,4,,6,5,6,5^8[8:1],,3,,1,,,,
24,,1,,35,,6,,2/4-8[8:1],,,,34,,2,2,
1,,6,5,,7,8,7,8^5[8:1],,1,,2,,3,,
75,,8,,64,,3,,7/5-1[8:1],,,,65,,7,7,
8,,3,4,,2,1,2,1-5[8:1],,8,,7-2[8:1]*-4[8:1]/1,,,,
7bx,,,,3,,,,3,,,,3,,,,
6xpp1[8:5]/5x,,,,5,,,,5,,,,5,,,,
1xh[8:1]/5xh[8:1],,,,4h[8:1]/8h[8:1],,,,3x/7x,,37,,26,,26,,
1x,6,5,6,1x,5,4,5,{32}1x,2,3,4,5,6,7,8,{16}1b/5b,,,,
2-8[8:1],,3,,2-4[8:1]/5,,6,,27,,8-4[8:1],8,,5,5,,
2-5[8:1],,1-4[8:1],,2<3[4:1],,1,,2,,,,Cf,,,,
7-5[8:1],,8,,3-6[8:1]/7,,2,,83,,1-5[8:1],1,,5,5,,
4-2[8:1],,3,,5-1[8:1],,6,,5/7,,8,,2,4,3,5,
4^1[16:3],,7,,6,,5,,4^7[8:1],,1,,2,,3,,
4-8[8:1],,7^4[8:1],,4^1[8:1],,7,,8xw4[8:1],,,,8,,,,
2-5[8:1],,2,,6-1[8:1],,6,,4^1[8:1]*^7[8:1],,,,4,,,,
24,,35,,46,,57,,8,1,8,1,2b/7b,,,,
8b-4[8:1]/4b^1[8:1],,,,A8/A4f,,,,1b-5[8:1]/5b^8[8:1],,,,A1/A5f,,,,
8,,17,,26,,35,,4,6,3,5,4-8[8:1],,,,
7-4[8:1]/4,,,,17,,,,2-7[8:1],,6-3[8:1],,2,,6,,
8^5[8:1],,1,,28,,3,,2,4,3,5,1,4,3,5,
8b^1-3[8:1]*^7-5[8:1],,,,A8f,,,,1b^8-6[8:1]*^2-4[8:1],,,,A1f,,,,
3-5[8:1]`5-3[8:1],,,,3^2-8[8:1]`5^6-8[8:1],,,,3`5,,,,Cf,,,,
4x>8[4:1],,,,8V24[4:1],,,,4,,5,,6,,7-3[8:1],,
,,37,,,,2,1,3,,6,5,6,3,4,3,
7b-5[8:1],,2h[8:1],,7b-1[8:1],,4h[8:1],,7b,,3,,2,,1-3[8:1]/4-6[8:1],,
,,14,,,,36,,3b-6b[8:1]/6b^3[8:1],,,,3b/6b,,,,
2xbh[4:3]/8x,,,,A3,,,,A4,,,,A5,,,,
1/7bh[4:3],,,,E7,,,,E6,,,,E5,,,,
1bh[4:3]/3^6-3[2:1],,,,,,,,,,,,,,,,
56,,7,,34,,2,1,2,,6,5,7,4,8,3,
1v4[8:1],,,,3-7[8:1],,,,5^2[8:1],,,,7v4[8:1],,,,
2-6[8:1],,,,1-5[8:1],,,,8-4[8:1],,,,7,,,,
3b/6b,,3,4,2,,6,5,7,,2,4,3,5,4,6,
5,7,8,6,1,5,2,4,{32}1,8,7,6,5,4,3,2,{16}1b-5[8:1]/8b-4b[8:1],,,,
E1f/1/8``C``E5,,,,3h[8:1]/6h[8:1],,,,2^5[8:1],,1,,8,,7,,
6v1[8:1],,5,,4,,3,,2-5[8:1],4,3,,2/8h[4:1],,,,
6p2b[8:1],,,,76,,,,5-7[8:1],,1-5[8:1],,5,,1,,
8-4[8:1],,2-8[8:1],,8,,2,,A5,A6,A7,,1,8,1,8,
2-5[8:1]/7-4b[8:1],,,,27``E5f,,,,7^4[8:1],,8,,1,,2,,
3v8[8:1],,4,,5,,6,,7-4[8:1],5,6,,7/1h[4:1],,,,
3^8[8:1],,,,34,,5,5,1,6,2,7,3,8,4,1,
5x-2[8:1],,5x-8[8:1]*-8[8:1],,5-1b[8:1],,5x,,5x``C,,,,{32}2xb/8xb,3x/7x,4x/6x,A5f,{16},,
1hb[8:13]/8-2-6-4z8[4:5],,,,,,,,,,,,,,,,
,,,,,,,,,,5,,26,,37,,
4p1[2:1]/8hb[4:7],,,,,,,,,,,,,,,,
E5,,E4,,E6,,E3,,E7,,E2,,Cf/B8,,,,
3-1[8:1]/4-8[8:1],,,,34,,,,6-8[8:1]/1-5[8:1],,58,,16,,,,
37,,2v5[8:1]/8v5[8:1],,46,,28,,,,1b/5b,,3b/7b,,,,
6-8[8:1]/5-1[8:1],,,,65,,,,3-1[8:1]/8-4[8:1],,41,,83,,,,
46,,8,,35,,1,,2v7[8:1]/7p2b[8:1],,,,2b/7b,,,,
5xh[8:1],,,,5h[8:1]/B2,,,,5h[8:1]/B4,,,,B6/5h[8:1],,,,
5h[8:1]/7x,,,,1x/5h[8:1],,,,3-7[8:1]/5h[8:1],,,,5h[8:1],,,,
1xh[8:1],,,,1h[8:1]/B6,,,,1h[8:1]/B8,,,,B2/1h[8:1],,,,
1h[8:1]/3x,,4,,5x/1h[8:1],,6,,7x/1h[8:1],,,,1h[8:1]/A6,A5,A4,,
2-7[8:1],,2,,7,,6,,5-1[8:1],,5,,4,,3,,
2-6[8:1],,8-4[8:1],,2,,8,,5w1[8:1],,,,5,,,,
34,,1,,24,,1,,34,,8,,24,,1,,
3,4,2,8,1,7,5,6,{32}4,3,2,1,8,7,6,5,{16}4b/8b,,,,
1x/5-1b[8:1],2x,3x,4x,E8f/B7/B8,,,,2x/6x-2b[8:1],3x,4x,5x,E8f/B7/B8,,,,
1,,82,,73,,64,,5,3,6,4,5-1[8:1],,,,
2-5[8:1]/5,,3,,8^5[8:1]/2,,1,,4^1[8:1]/8,,3,,45,,6,,
7-3[8:1],,8-4[8:1],,7,,8,,5,6,7,8,1b/2b,,,,
8x/4-8b[8:1],7x,6x,5x,E2f/B2/B1,,,,7x/3x-7b[8:1],6x,5x,4x,E2f/B2/B1,,,,
7-1[8:1]`1-7[8:1],,,,7^6-4[8:1]`1^2-4[8:1],,,,7`1,,,,Cf,,,,
1x<5[4:1],,,,5>1[4:1],,,,1,,8,,7,,6,,
5-1[8:1],,4,4,5,,2,2,1,,3,4,2,6,5,7,
1b-3[8:1],,5,5,1b-5[8:1],,7,7,1b,,6,6,7x,,8-4[8:1]/5-1[8:1],,
,,85,,,,63,,6b-3b[8:1]/3b^6[8:1],,,,3b/6b/E5f,,,,
