&title=雑踏、僕らの街
&artist=TOGENASHI TOGEARI
&first=0
&des=absqrt.
&lv_6=13
&inote_6=(171)
{1},
{4},,
{8},8/1,{32}4,3,2,1,8,7,6,5,
{24}8b,4,8,4,8,4,8,4,8,4,8,4,8,4,8,4,8,4,8,4,8,4,8,4,8,4,8,4,8,4,8,4,8,4,8,4,8,4,8,4,8,4,8,4,8,4,8,4,
{16}8<1[8:12],,,4,,,6,,,2,,,8,,8,,2,,,7,,,4,,,6,,,3,,3,,
{16}8,7,6,5,3,2,1,8,6,5,4,3,1,2,3,4,1,8,7,6,4,3,2,1,7,6,5,4,1,2,3,4,
{16}8,5,8,3,8,5,8,3,7,4,7,2,7,4,7-4[8:1],2,
{4}5<4[4:6],,,{8},5pp2[8:5],,,,,,,,,
{16}7,5,6,4,5/3,,2,,6,4,5,3,4/2,,1,,
{16}8,7,6,5,2,4,3,5,1,6,4,6,2,7,2,5,
{16}1,2,3,4,1,8,7,6,3,5,2,4,1,6,1,4,
{16}6,7,8,2,3,4,7,5,8,7,6,5,4,3,2,1,
{12}6pp4[1:1],,,,,,5,,,3,,,8,,,1h[16:1],,,
{12}2pp8[1:1],,,,,,6,,,7,,,4,,,5h[16:1],,,
{4}6qq7[1:1],,3,8,1,2h[16:1],
{4}3qq4[1:1],,8,5,6-1[8:1],,
{16}4,,,3,5,,2-7[8:1],,6-3[8:1],,2,,6,,,,
{16}8,,,,1^4[4:1],,1,,4^7[4:1],,,,7<1[2:1],,7,,,,8,,8,,,,7,,,,6,,,,
{16}5/2,,,3,6,,4-1[8:1],,8-5[8:1],,4,,8,,,,
{16}2,,,,3^8[4:1],,3,,8^5[4:1],,,,5<4[2:1],,5,,,,4,,4qq8[2:1],,,,5,,,,7,,,,
{4}6,
{4}5h[1:1],7,3,6,
{16}4,,3,,2,,1,,7,8,,6,,,5,,
{4}4h[1:1],3,6,2,
{16}8,,7,,6,,5,,3,4,2,5,
{16}1b-5[8:1],,,,8/1,,7,7h[8:1],,4,4h[8:1],,6-1[8:1],,6,,
{16}6/5,,3,3h[8:1],,8,8h[8:1],,2-5[8:1],,2,,7/2,,6,6h[8:1],
{16},4,4h[8:1],,5-1[8:1],,5,,5/3,,2,2h[8:1],,8,8h[8:1],,6,,5<4[2:1],,4,,3,,
{16},,,,,,,,
{16}3,5,3,5,2-5[8:1]/6-1[8:1],,5/3,,6v3[8:1]/2,,,,7,,7,,
{16}8/4,,3,7,1qq4[2:1],,6/4,,8/1,,,,5,,5,,
{16}6,,6,,7,,7,,2-5[8:1],,3,,6-1[8:1],,7,,4-1[8:1],,3,,8-5[8:1],,7,,2,,2,,
{16}5/3,,6,4,7-4[8:1],,8/1,,7/2,,,,
{16}1,8,3,4,1-3[8:1],8,5-1[8:1],6,1-6[8:1],,5,,,,,,
{16}2,8,4,5,1-3[8:1],7,4v1[8:1],5,1-7[8:1],,4,,,,,,
{8}2p4[4:1],,4^1[4:1],4,,,5,5^8[4:1],1,,2-5[4:1],2,
{16}8,8,,7,,,6,,4b-7[8:1],,,,4/3,,2,,8,1,8,1,
{16}7-4[8:1]/3-8[8:1],,6/2,,7v2[8:1]/3,,,,5,,5,,6/3,,6,,7/2,,2,,
{8}8-4[8:1],7,1-5[8:1],2,7-4[8:1],6,2-5[8:1],3,6,6,7/4,
{16}3,5,2-5[8:1],,8/1,,7/2,,,,
{16}6,7,6,5,6-8[8:1],7,6-2[8:1],5,6-4[8:1],,,,,,,,
{16}1,2,1,8,1-3[8:1],2,1-5[8:1],8,1-7[8:1],,,,,,,,
{8}6<3[4:1],,4,4q5[4:1],,,6<3[4:1],6,,,4q5[4:1],4,,6,7,8,
{16}4,,4,7,,7,1,,1,5,,5,2,,4/3,,5^8[16:3],,,8p4[16:3],,,1,,,,
{16}2,,3,,4,,7,,7,5,,5,6,,6,1,,1,4,,5/3,,2^5[16:3],,,5p1[16:3],,,6,,,,
{16}8,,7,,6,,3b,,2b,8/2,,3b,5/3,,1b,1/7,,4b,4/6,,,,
{16}7b,,6b,6/4,,7b,7/1,,5b,5/3,,8b,8/2^5[8:1],,5-1[8:1],,7,,,,
{16}8<4[8:2],,8h[8:3],,,,,,,,,,
{4}7h[4:5]/3h[4:5],,,,,,1-5[8:1],8b/1b,
{16}6,7,8,1,4,3,2,1,8/7,6,5,4,8,1,2,3,4/5,6,7,8,1/2,3,4,5,
{16}8,7,6,5,4/3,2,1,8,
{16}6,,4,4b/5,,7,7b/1,,3,3b/4,,6,7b/5b,,1,8b/2b,,4,5b/3b,,7,8b/6b,,
{16}2,1b/3b,,5,6b/4b,,8b/1b,7bv4[8:1]/2bv5[8:1],,,,,,,,,,E
