&title=極夜、暁を望んで
&artist=めと(Metomate)
&first=0.01
&des=開脆兔Rabbit
&clock_count=3
&wholebpm=222
&lv_5=14
&inote_5=(222){1},
{8}
1<4[8:12],2,3,,2,3,,2,3,,2,3,,2,3,,2-6[8:4],3,4,,,,,,
35,3-1[8:1]/5,,35,,46,4/6-8[8:1],,4-2[8:1]/6-4[8:1],,46,,
1,1,1,1,1s5[8:5],1,,,,,,,
6v4[8:3],,,4<8[8:5],,,3,,2,,1,,2v4[8:3],,6,6,,8,8p4[4:1],,4p8[4:1],,8<4[8:3],,4,,,,
1,2,3,4,5,6,7,8,1v7[8:3],,7,7>4[8:6],,5,5v7[8:3],,,,,,
6h[8:3],,,4h[8:3],,,8p4[4:1],,4p8[4:1],,8<4[8:3],,4,,1,1-3[8:1],,7,7V51[8:3],,2,,3,,
8b/2b,,5,6h[4:1]/4b,,3,4b/2h[4:1],,
6,7h[4:1]/5b,,3,8b/1h[4:1],,6,8b/2b>8[8:5],,,5h[8:4],,,,,,
2h[2:1],,8,,7,,5h[2:1],,3,,4>1[4:3],,7h[4:2],,,,,,,,
6,,5<1[4:3],,3h[2:1],,,,,,,,3,,4>6[4:3],,8h[2:1],,,,,,,,
{16}
45,,7,6,5,,,,
{8}
3h[4:2]/4,,6,,5,,7h[2:1]/6,,4,,5qq1[4:3],,6h[4:3],,,,,,,,,,2/4<1[4:2],35,46,,,,,,24,,35,,46,,57,8,46,3,24,5,,4,5h[4:2],,,,
3,3-6[16:1],,5-8[8:1],,4,4,,
{12}
2,4,3,6,4,5,
{16}
3,,24,,,,8,,71,,,,53,,64,,,,3,2,1,,35,,
1>3[8:1],,,,5,,5<7[8:1],,,,4,3,2,,1-6[8:1]/8,,,,4-8[8:1],,,,5-2[8:1],,,,6,,,,
81,7,6,54,3,2,17,,6,,82,,3,,5,6,7,8,14,,3,,,,16,,7,,,,
53,,42,,1,8,7,6,5,4,3,2,
{8}
16,6/1v4[4:1],,5,6,7,83,3/8v5[4:1],,4,3,2,
{16}
1h[2:1]/6,,,,6,,,,7,6,5,4,1,,3,,2,,4,,3,,5,,
{4}
4qq5[1:1]*>5[1:1],,,,,,
{8}
4h[8:1]/6,7,,5h[8:1]/3,1,,5h[8:1]/6,8,,24,35,46,5/7,5/7,5/7,5/7,5V31[8:4]/7V51[8:4],5/7,,,,,,,
2/7v4[8:3],,,2,,,1>4[8:4],,,5,6,7,
8p4[4:1],,4p8[4:1],,8<4[8:2],,4>8[8:2],,,,,,
2v4[4:1]/7v5[4:1],,,,,,7<4[8:3],,,4pp7[8:5],,1,2,,,3,,3,45,6,45,3,45,6,
7p5[8:8]/5,,,3,,8,8,,1,,2,,
2q4[1:1]/4,,,6,,8,8-5[8:2],,,,,,
6p2[8:3],,,2<4[8:5],,4,4,,1,,2,,
{16}
3,5,3,5,4,6,4,6,5s1[8:4],7,5,7,,,,,,,,,,,,,
7bpp6[8:8]/3bpp2[8:8],,,,,,,,,,,,,,,,,,,,,,,,
35,,46,,8,7,6,5,43,,2,,56,,7,,53,,2,4,3,5,4,6,
57,,4,,53,,6,4,5<8[8:4],,,,1,,,,2,,,,3,,,,
37,6,5,4,8,7,6,5,1s5[8:6],8,7,6,51,,,,6,,,,7,,,,8h[8:3],,,,,,3z7[8:7],,,,,,
7,,,,6,,,,5,,,,5h[8:3],,,,,,4h[4:1],,,,,,8,1,2,3,1,2,3,4,2,3,4,5,
6v8[8:4]/2,,,,3,,,,4,,,,4v2[8:4],,,,7,,,,,,6,,5,,5<8[8:3],,,,8,,8<5[8:3],,,,
4,,4,,3,,3,,2,,2,,
4b/3b,,43,,4b/3b,,34,,4bV68[8:4]/3bV15[8:4],,34,,,,,,,,,,,,,,
5b/6b,,65,,5b/6b,,56,,5bV31[8:4]/6bV84[8:4],,65,,,,,,,,,,,,,,
5b/3b,,,,7,6,5,4,1,2,3,4,7,8,1,2,5,4,3,2,1-5[8:5]/5,,,,
6,,6,,7,,7,,8z4[8:5],,8,,,,,,,,,,,,,,
3-7[4:1],,,,7>4[8:4],,,,5,,5-7[8:1],,,,5,,,,,,8q4[4:1],,,,4q8[4:1],,,,8>6[8:6],,,,
4,,,,,,1h[8:3],,,,,,,,,,,,3q5[8:7],,,,,,7,,,,6,,,,5<3[8:8],,,,,,,,4,,,,5,,5,,,,,,,,,,
5h[8:1]/4,,2,,,,1h[8:1]/8,,6,,,,7h[8:1]/5,,3,,,,84,,73,,62,,,,,,,,,,
3h[4:3]/5,,,,5,,,,5,,,,5,,,,7h[4:4]/4,,4,,4,,4,,4,,4,,4,,4,,
4,3,2,1,8,7,6,5,48,,48,,,,37,,26,,15,,
{24}
2,3,4,5,6,7,3,4,5,6,7,8,4,5,6,7,8,1,
{16}
2-7[16:1]/6-3[16:1],,,,6b/2b,,,,,,,,8h[4:1],,,,7h[4:1],,,,6,,,,
5/2h[8:3],,,,6,,6,,,,7,8,7,,6,,5,,4,,3,,2,1,2-7[8:2]*-5[8:2],,,,,,,,,,,,
64,,,,53,,,,42,,,,1-5[8:2]/3,,,,7,,7,,,,6,,3,4,3,4,2,5,2,5,1,6,1,6,
8,1,2qq4[8:7],,,,,,,,,,4,,,,6,,,,8,,,,5,,6,,7pp5[8:6],,,,,,4,3,2,,,,3,,,,2,,,,
2h[8:3]/4v7[8:2],,,,,,,,,,,,64,,6,,64,,6,,64,,6,,
4b,5,4,5,4,5,3b,6,3,6,3,6,1b,7,1,7,1,7,2b,8,2,8,2,8,
2bqq5[8:8]*q5[8:8],,,,,,,,,,,,,,,,,,,,,,,,
7,,6,,2,3,4,,6,,7,,2,,1,,87,,35,,21,,46,,,,
3b/4b,,,,3b/4b,,3b/4b,,3b/4b,,5b/6b,,5b/6b,,7b/8b,,7b/8b,,1b/2b,,1b/2b,,,,
6,5,7-3[8:38]/4,,,,,,,
2,3,4,5,
{12}
6,7,8,1,2,3,4,5,6,
{8}
7,8,
{16}
1,,,2,,,3,,,,
{6}
4h[16:43],,,,,,,,,,,,,,,,,
E
