&title=防人恋歌
&artist=Ax feat.夏川陽子
&first=0
&des=KuSA
&lv_5=12
&wholebpm=170
&inote_5=(170)
{1},
{8},,
{24}7,6,5-1[24:19],{8},,,,,,3>6[8:9],,,,,,,,,5pp1[1:1],,,,,
{24},2,3,{8}4,,,,,,2-5[8:4],,,,
{24}8,7,6-1[2:1],{8},,3h[4:3],,,,,,{24},4,5,
{8}3,3,4,4,5,5,6,6/5,5/6,4/5,4/5,3/4,3/4,2/5,
1bqq2[2:1],,,,5h[4:1],,,5-8[8:1],,2,1,8,7,6,
5h[2:1],,1,,4,5,3,4h[4:1],,3,4,5,6,5,
8pp7[2:1],,,,4h[4:1],,,4-1[8:1],,7,8,1,2,3,4h[2:1],,8,,
5,4,6,5h[4:1],,6,5,4,5p4[24:38],4,3,,,,,,,,{24}1,2,3,{8},,,,,
4/5,,3/4-7[8:1],,5h[8:3],,,6-4[8:1],,3,2h[4:1],,3,1,8,1,2/7V51[2:1],,5,,4h[8:3],,,
2,,6,5,4,3-7[8:1],,2,,4/5,,6/5-2[8:1],,4h[8:3],,,1pp1[4:1],,
8,7h[4:1],,8,6,5,5/4,3V15[2:1]/6,,1,,8,,7,7V51[8:3]*V53[8:3],,,,,,,
2b/7b,,3/4h[4:1],,2,6,4h[4:1],,6,2,4-7[8:1],,3>1[8:1],,1,8,8,,
6h[4:1],,5h[4:1],,4,4,3/5-1[8:1],,4-2[8:1],,5-7[8:1],,4-8[8:1],,8,,
6/5h[4:1],,7,3,5h[4:1],,3,7,5>2[4:1],,2<7[4:1],,7<4[4:1],,4p8[4:1],,7h[2:1],,,,
1h[4:1],,2h[4:1],,3h[8:4],,,,4-1[8:1],,,,
6b-1[8:1],2,6,3,6-1[8:1],2,6,3,8,7/2,6,5/3,4v7[8:1],,6/4,,
5v2[8:1],3,5,4,1-6[8:1],3,1,4,5,5,6/4qq4[4:1]*pp4[4:1],,,,,,
2-4[8:1],6,2,7,1-5[8:1],6,1,7,4,3/6,2,1/7,
8p3[4:1],,1,2,2-6[8:1],,2/5-8[8:1],,5/4,,2,1>4[8:1]/8q4[8:1],,1/8,,5/6,4/8,,
5/4,6,7-3[8:1],,7/4-1[8:1],,4/5,,7,1/8,,3/4,2/4,3/4,5b/1b,,,,
7pp2[8:7]/1h[4:1],,,,3h[4:1],,,3<6[2:1],,,,,,,7,,7-4[2:1],,,3-8[2:1],,3,,,
,,,,4z8[8:7]/5h[4:1],,,,7h[4:1],,,7<4[2:1],,,,,,,2,,2-7[2:1],,,6p4[8:6],,6,,,,,,,
2h[4:1],,,,3h[4:1],,,,4h[4:1],,,,5h[4:1],,,,6h[4:1],,,,7,6,5,4,
{24}3>6[24:30],4,5,{8}6<3[8:9],,,,,,,,,,,,,1b,,
6/5h[4:1],,6,2,4h[4:1],,3,7,5-3[8:1],,7-3[8:1],,2,1,1,,
2h[4:1],,4h[4:1],,5,5,4>2[8:1]/6,,5p1[8:1],,4q8[8:1],,5<7[8:1],,1,,
4h[4:1]/3,,3,7,5h[4:1],,6,2,4<7[4:1],,7>2[4:1],,2>5[4:1],,5q1[4:1],,2h[2:1],,,,
3h[4:1],,4h[4:1],,5h[2:1],,,,1w5[8:1],,,,3b-8[8:1]/7b,6,7/3,6,3-8[8:1]/5,6,5/3,6,
7/8,1,2/7,3,4/5<8[8:1],,5/3,,
4-8[8:1]/6,5,4/6,5,1-6[8:1]/4,5,4/1,5,4,5,4qq4[4:1]*pp4[4:1],,,,,,
2/7<4[8:1],3,2/7,3,6>3[8:1]/2,1,2/6,1,2/4,3,4/5,6,7/5>8[4:1],,
8,7,7-3[8:1],,7/4-1[8:1],,5/4,,2/7,1/8,,6/5,5/7,6/5,4b/8b-4[8:1],,,,
2-5[8:1]/1-5[8:1],,1b/2b,,7-5[8:1]/8-4[8:1],,7b/8b,,
2/6,3/7,2/6,3/7,2-5[8:1]/6-1[8:1],,2/6,,4>1[8:1]/8<5[8:1],5/1,8b/4b,,
1/5,2,3/7,8,1<6[8:1],,1/4qq4[4:1]*pp4[4:1],,4b,,,,
7-4[8:1]/2,1,2/7b,1,3/8-4[8:1],2,3/8b,2,1/5,2/6,3/7,4/8,1<4[4:1],,
3,2,2-6[8:1],,2/4-1[8:1]*-7[8:1],,4,,1/8,3<6[8:1]/6-1[8:1],,3/6,,
7/8,1-4[8:1]/5-8[8:1],,1b/5b,,2-7[8:1]/6-3[8:1],,2b/6b,,4-8[8:1]/8,,4b/8b,2h[4:1],,
1,3/1,1/2,4b/8b,,
