&title=君往何处 (Quo Vadis)
&artist=M2U
&first=0.03
&des=Dolive
&lv_6=13
&inote_6=(160){4},,,,,
{8},56,{16}4,3,
{8}2h[4:1],,5h[4:1],2,2>4[8:1],,6,,7h[4:1],{16}4,3,
{8}2,2,5,5,64,,3h[4:1],,4,3,5-3[8:1]/2-4[8:1],,,,34,{16}6,5,{8}6,7,{16}2-8[8:1],4,2,4,2,,{16}6,,
{8}7h[4:1],,4h[4:1],7,7<5[8:1],,3,,2h[4:1],{16}5,6,
{8}7,7,4,4,35,,6h[4:1],,5,6,4-6[8:1]/7-5[8:1],,,,65,{16}3,4,{8}3,{16}7,5,6-8[8:1],4,5,4,{8}6,,
3b>8[8:1],7,7,,6b>3[8:1],8,8,,4b<7[8:1],1,1b-5[8:1],,8bV27[4:1],,4,3,2b-6[8:1],,26,,5b-8[8:1]*<7[8:1],,5>7[8:3],,5b,8,7,6,5p2[16:5],,,,
8,7,2,3,1<6[32:5]/4,,{16}4,3,2,1,{8}8,6,5,6,4>1[32:5]/7,,{16}7,6,5,4,{8}8-3[8:1],8,5-2[8:1],5,1-4[8:1],1,6-2[8:1],6,3>8[32:5],,{16}3,,7,6,{8}5q6[16:5],,,,
1,2,7,6,8>3[32:5]/5,,{16}5,6,7,8,{8}1,3,4,3,5<8[32:5]/2,,{16}2,3,4,5,{8}1-6[8:1],1,4-7[8:1],4,8-5[8:1],8,3-7[8:1],3,6,6,58,{16}1,2,{8}3/4qq5[16:5],{16}2,3,{8}64,,
8,7,2,3,1<6[32:5]/4,,{16}4,3,2,1,{8}8,6,5,6,4>1[32:5]/7,,{16}7,6,5,4,{8}8-3[8:1],8,6-1[8:1],6,3>8[8:1],3,7-3[8:1],7,17,,2-4[8:1]/5-2[8:1],1,5v8[8:1]/2,,58,,
1,2,7,6,8>3[32:5]/5,,{16}5,6,7,8,{8}1,3,4,3,5<8[32:5]/2,,{16}2,3,4,5,{8}1-6[8:1],1,3,4,5-1[8:1],5,6,7,8,,1>4[8:1]/2,{24}8,7,6,{8}1-7[8:1],5,1,,
6-8[8:1],5,6,{24}4,3,2,{8}1>4[8:1],8,1,{16}7,6,{8}5,34,{16}5-2[8:1],6,{8}7-4[8:1],5,7,1,1,
6-4[8:1],8,6,{24}8,1,2,{8}3>8[8:1],4,3,{16}5,6,{8}7,18,{16}7,6,{8}5-1[8:1],3<6[8:1]/4,5,3,8,
2-4[8:1],1,2,{24}8,7,6,{8}5<8[8:1],4,5,{16}3,2,{8}1,78,{16}1-6[8:1],2,{8}3-8[8:1],1,3,5,5,
2-8[8:1],4,2,{24}4,5,6,{8}7<4[8:1],8,7,{16}1,2,{8}3b-8[8:1],,3b<5[8:1],5b-2[8:1],6bpp5[16:5],,,,
{8}2,3,6,5,{16}4,3,4h[4:1],,,,2,4,{8}2>4[8:1],1,5,6,{16}7,4,7h[4:1],,,,3,7,{8}3-1[8:1],4,6-4[8:1],7,6-1[8:1],{24}1,2,3,{8}6,4qq5[16:5],4,,8,7,{16}6,5,6,5,{8}46,,
{8}3,2,6,5,{16}4,1,4h[4:1],,,,2,4,{8}2<8[8:1],3,5,6,{16}7,8,7h[4:1],,,,4,7,{8}4-2[8:1],5,7-1[8:1],6,3<6[8:1],2,1,8,7>1[8:1],6,4>2[8:1],5,8,{16}7,6,5,,18,,
{8}7,6,3,4,{16}5,6,5h[4:1],,,,7,5,{8}7<5[8:1],8,4,3,{16}2,5,2h[4:1],,,,6,2,{8}6-8[8:1],5,3-5[8:1],2,3-8[8:1],{24}8,7,6,{8}3,5pp4[16:5],5,,1,2,{16}3,4,3,4,{8}53,,
{8}6,7,3,4,{16}5,8,5h[4:1],,,,7,5,{8}7>1[8:1],6,4,3,{16}2,1,2h[4:1],,,,5,2,{8}5-7[8:1],4,2-8[8:1],3,6>3[8:1],7,8,1,2b,34,45,56,5-1[8:1]/7-3[8:1],,5b/7b<4[2:1],,
{8}2h[4:1],,,2h[4:1],,,2>5[2:1],,6h[4:1],,,6h[4:1],,,6>4[2:1],,3h[4:1],,,3h[4:1],,,3q5[2:1],,6h[4:1],,,7h[4:1],,,8,,
1<6[32:5]/2,,3,3qq7[8:3],,6,6,,
5V74[32:7],,8,8-4[8:1],,58,5,,
4b<7[32:5]/3,,2,1,8b-5[8:1],,7/8,,
6b,{16}5,6,4,6,5,5,3-6[8:1],5,4,4,{8}3h[64:1],,
7q5[4:1],,5<2[4:1],{16},3,{8}3h[4:1],,,3,1<4[16:5]/4,,3,2,1,,35,,
2p4[4:1],,4>7[4:1],{16},6,{8}6h[4:1],,,6,8/5,2,14,7,65,{16}3,4,2,,7,8,
7b,6,5,4,7,6,5,4,2,3,4,5,2,3,4,5,7,8,1,2,7,8,1,2,6,5,3,4,6,5,3,4,7b,5,6,5,8,4,6,4,1b,3,6,3,4,,25,,{8}1>4[32:5]/6,7,8,1,1q5[8:1],5q1[8:1],5,,
3,3h[4:1],{16}1-5[8:1],8,7>2[8:1],6,1,,7,,4,,3,3,1,,1h[4:1],,4pp5[32:5],3,2,1,4>1[8:1],,,,4,,6,,5h[8:3],,,,7<4[8:1],8,1,2,7-3[8:1]/3-8[8:1],,,,37,,,,4,,4h[4:1],,1-5[8:1],2,3>8[8:1],4,1,,3,,5,,1,,
6,,6h[4:1],,8-4[8:1],1,2<7[8:1],3,8,,2,,5,,6,6,8,,8h[4:1],,5qq4[32:5],6,7,8,5<8[8:1],,,,5,,3,,4h[8:3],,,,2,1,8,7,26,1,8,7,36,2,1,8,{8}4b-8[8:1]/7-4[8:1],,4>6[4:1]/7,,,,5,,
46,2,18,7,{16}6pp5[4:1]/5,4,3,,6,,4,3,{8}2,17,6,45,{16}3<6[8:1],2,1,,3,,8,1,{8}2,47,6,{24}25,3,4,{8}5,7,1<6[8:1],6V47[4:1],4-1[8:1],,,,{16}8-4[8:1],7,8,7,{8}8,,
35,2,87,6,{16}5pp4[4:1]/4,3,2,,5,,3,2,{8}1,85,6,24,{16}5>2[8:1],6,7,,5,,8,7,{8}6,25,1,{24}87,6,5,{8}4,35,26,7,1,52,6,{24}78,1,2,{8}3,{16}6,5,6,,{8}47,
53,7,81,2,{16}3qq4[4:1]/4,5,6,,3,,5,6,{8}7,82,3,54,{16}6>3[8:1],7,8,,6,,1,8,{8}7,52,3,{24}74,6,5,{8}4,2,8>3[8:1],3V51[4:1],5<8[8:1],,,,{16}2>5[8:1],8,2,8,{8}2,,
64,7,12,3,{16}4qq5[4:1]/5,6,7,,4,,6,7,{8}8,14,3,75,{16}4<7[8:1],3,2,,4,,1,2,{8}3,74,8,{24}12,3,4,{8}5,64,73,2,1/8b,{16}7,5,6-1[8:1],5,7,4,6,,,,38,,{24}7,6,5,{8}24,1,87,{24}7,6,5,{8}43,2,57,6,
3b/4v7[8:1],2>4[8:1],4pp1[8:3],2,8<5[8:1],,8b,,
