&title=INSIDE IDENTITY
&artist=ysj
&first=0.605
&des=大鸟游十二花
&lv_5=12+
&inote_5=(186)
{4}
1,1,1bw5[32:3],,
{8}2h[4:1],,,
4h[4:1],,,3/5h[4:1],,,4h[4:1]/6h[4:1],,,3-8[8:1]/7-4[8:1],,3/7,,1b/5b,26,37,4^1[8:1]/8^5[8:1],,4pp7[9:8]/8pp3[9:8],,4b/8b,,,,,,,,,2h[4:1],,4-7[8:1],4,,2-5[8:1],2,,8,8h[4:1],,,5-2[8:1],6-1[8:1],5,6,3,3,4,4,2h[4:1],
{24}
E4,E5,E6,,,,
{8}
7xh[4:1],,,1,1,2-5[8:1]/8-5[8:1],,,,6,5,7,7h[4:1],
{16}1,2,3,,,,5h[4:1],,,,1,,4,,8,,3,,7,,2,,6,,1x-5[8:1],,5,,1,,
{8}
7x-4[8:1],4,7,3x-5[8:1],5,3,7,6,7,8b,8,,,
3hx[4:1],,5-3[8:1],,2-6[8:1],2,,5,5h[4:1],7,7,8,1-5[8:1],,13,,42,,31,,2,2,4,3-7[8:1],,3,1,1^4[8:1]*^6[8:1],,,,,
7hx[4:1],,5-2[8:1],,8,8-4[8:1],1,1h[4:1],,
{16}5,6,7,,28,,1-5[8:1]/7-1[8:1],,,,,,,,3-7[8:1],,,,3,,6-2[8:1],,,,56,,4,,4,,3h[4:1],,1,8,7,,46,,8-4[8:1]/7-4[8:1],,16,,,,,,
{8}
2b,1,3,4,2-4[8:1],5,2,8h[4:1],,,5,5,4-1[8:1],,,,8,8h[4:1],,2,2,,5,4h[4:1],,
{16}5,6,7pp4[3:1]/3qq6[3:1],,,,,,,,,,,,
{8}6hbx[8:3],5,,4h[8:3],5,,7,7h[4:1],,4,3,2,1^4[8:1]*^6[8:1],,,,8,8h[4:1],2,2h[4:1],
{16}
8,7,6,5,4,3,2,,1,,1h[4:1],,2,,
{24}
8,7,6,5,,,1b,,,
{8}
,3-7-1-5[16:7],,,7x,,6h[4:1],,4,4-8[8:1],,6-4[8:1]/4,,,1h[4:1],,3h[4:1],,2^7[8:1],,5^2[8:1],5,,8^5[8:1],8,,,
{24}A4,A3,A2,A1,A8,A7,A6,A5,,
{8}Ch[8:1],,,4h[4:1],,7,5,6,
{16}
3,4,3,,5^8[8:1],,,,5p4[4:1],,,,,,,,1h[4:1],,,,3h[4:1],,,,
{24}
7,6,5,4,,,1b^6[8:1],,,,,,
{16}
5,4,3,,1b<4[16:3]/5,,,,4,3,2,,1,,1h[4:1],,,,4-8[8:1],,,,2-5[8:1]/4,,,,,,7h[4:1],,,,5h[4:1],,,,8,,8-4[8:1],,,,3-1[16:2]/8,,,,,,5h[4:1],,,,7h[4:1],,,,8b^3[8:1],,,,5,,5^8[8:1],,,,2,,2q6[8:1],,,,,,
{32}A7/D8,A8/D1,A1/D2,A2/D3,A3/D4,A4/D5,A5/D6,A6/D7,A7/D8,,,,
{16}
1x-5[8:1],,8-6[8:1],,1,,8,
,4,,4h[8:1],,6,,6h[8:1],,3,,3h[8:1],,7,,7h[8:1],,
1^4[8:1],,,,
{24}A5,A6,A7,A8,,,
{32}
1x,2,3,4,5,6,7,8,1xh[4:1],,,,,,,,
{8}4b-2[8:1],8-4[8:1],4,8,,2-8[8:1],6-2[8:1],2,6b/Cf,,,,8,8xh[4:1],,
{32},1x/7x,6x/2x,3x/5x,
{8},4,3,4,2h[4:1],,5<4[3:1],5,,,,,1h[4:1],,3h[4:1],,6^3[8:1],,2^7[8:1],2,,5qq5[3:1]*pp5[3:1],5,,,,,,3-7[4:1]/4,,7-3[4:1],,3^8[4:1],,8<4[4:1],,4>5[9:4],,7h[4:1],,,,4,4-8[8:1],,24,,3,3h[4:1],,7,7^2[8:1],,7/3^6[8:1],,3,
{32},,,,A8,A7,A6,A5,A4,A3,A2,A1,
{8},8x,8xw4[8:1],,Cf,,7,6,7,4h[4:1],
{16}8-4[8:1],7,
{8}6,3>6[4:1],,,,,5,4,5h[4:1],,2^5[4:1],,6,6^3[4:1],,,,,2-4[8:1],1,2,
{16}5,6,7,,8,,1-5[8:1]/7,,,,3-8[8:1]/1,,,,6^1[8:1]/3,,,,4h[4:1],,,,2h[4:1],,,,5-3[8:1],,,,1,,1^6[8:1],,,,4,,4^1[8:1],,,,7xh[4:1],,,,5x,,5h[4:1],,,,3x,,3xh[1:1],,,,,,,,,,,,7xh[4:1],,,,
{32},,,,6x/2x,1x/5x,4x/8x,3x/7x,
{8}2-4[8:1]/6bx,,5-1[8:1],5,,3^8[8:1],3,,7,7h[4:1],,,7-5[8:1]/5-1[8:1],,,,2-5[8:1],1,2,7-2[8:1],6,7,4-7[8:1],8,4,1h[4:1],,,5>1[8:1]*<1[8:1],,,,6-1[8:1],4,6,3-8[8:1],5,3,7pp2[8:3],3pp6[4:1],7,3,,,4w8[8:1],,,,5b/6b,34,12,8-4[8:1]/7,,6-1[8:1]/8b,,
{32}E4f,B4,B5,E6,
