&title=廃棄対象_アヲ・キナ
&artist=sasakure.UK x TJ.Hangneil
&first=0.02
&des=Dstar
&lv_5=14+
&des_5=Dstar
&inote_5=
(140){4},,,,{2}4h[4:1],
{4}8<4[8:5],4h[4:1],
,,{2}3h[4:1],
2h[4:1],{4}3>7[8:5],2h[4:1],
,,{2}2h[4:1],
3h[4:1],{4}2/6>2[8:5],3h[4:1],
,,{2}3h[4:1],
2h[4:1],{4}2/1<5[8:5],2h[4:1],
,,{2}2h[4:1],
{6}B7,B6,B5,B4/B2,,,B2,
B3,B4,B5/C,{12},{4}B8/B1,
1V35[2:1],3-5[4:1]*-7[8:1],,6,
{8}5,{24}4,5,3,{16}4>8[8:1],3,,,{2}4/7h[2:1],
{4}8V64[2:1],6-4[4:1]*-2[8:1],,1,
{8}1,{24}5,6/2,7,{12}8<4[8:1],3,,{2}8/4h[2:1],
{4}2V46[2:1],4-8[8:1]*-6[4:1],,2,
{8}1,{24}8,1,7,{16}8<4[8:1],7,,,{2}8/2h[2:1],
{4}7V53[2:1],5-1[8:1]*-3[4:1],,2V48[4:1],
{8}2,{24}8,7,6,{16}5>1[8:1],4>8[8:1],{48},,,,,,{6}5/6,5,1/5,
{32}2/6-2[2.5714##0.2143],D2,A1,D1,A8,D8,A7,D7,A6,D6,A5,D5,A4,D4,A3,D3,A2,D2,A1,D1,A8,D8,A7,D7,A6,D6,A5,D5,A4,D4,A3,D3,
A2,D2,A1,D1,A8,D8,A7,D7,{4}A6,{2}6/7h[2:1],
{4}4>8[2:1]*>2[4:1],8p4[8:1],,7,
{8}6,{24}4,5,3,{16}4q8[8:1],3,,,{4}4/2h[4:1],1p5[8:1]*>5[4:3],
1,1>5[8:1],1,3,
{8}4,{24}5,4,6,{16}5p1[8:1],6,,,{4}5/7h[4:1],8q4[8:1]*<4[4:3],
8,8<4[8:1],8,6,
{8}5,{24}4,5,3,{16}4q8[8:1],3,{48},,,,,,{6}4/2,2,7/5,
(120){16}8,7,5,6,8,7,5,6,8,7,5,6,1,8,3,4,
1,8,3,4,1,8,3,4,2,1,4,5,2,1,4,5,
2,1,4,5,2-6[8:3],1,4,5,A2,A1,A4,A5,A2,A1,{8}A8,
{16}1,2,4,3,1,2,4,3,1,2,4,3,8,1,6,5,
8,1,6,5,8,1,6,5,7,8,5,4,7,8,5,4,
7,8,5,4,7-3[8:3],8,5,4,A7,A8,A5,A4,A7,A8,A1,A2,
{8}3-8[8:1],4/6,3/5,7-4[8:1],8/2-8-4-6[8:7],7/1,2,6,
6,7,7,8-2[8:1],{16}8,,,4-2[8:1]*V68[16:17],,,,4,
,,,,,,,,5x,4x,3x,2x,1xV75[8:7],8x,{8}7x,
{24},1x,{48},,,,,,,2x,,,,,,,,,{12}3x,{24},,,{8}4x,,A5h[16:61],
{1},,,{4},,{16},,,2-8-6-4-2[16:25],
{32},,,,,,B2,B3,
{16}B4,,,B7,{32}A7,,,Ch[32:1],,,,,{4}B6h[8:1],{8}B2,{16}E1,B7,
,B6,A6,A5,{8}B4,{32}E7h[16:1],,,B6,{8}B5,4,{16}3h[16:1],4h[16:3],,,{8}B2/E3/B3,
7h[8:1],{16},,8h,6h,{4}A3h[4:1],{8}B6/E6/B5,4h[16:1],
{16}6V82[2:1],,,B3,Ch[16:1],,,E6,,D4,B4,B3,{4}3h[4:1],
{48}7,D7h[96:1],A6h[96:1],D6h[96:1],{24}A5h[96:1],2h[16:1],,,{8}4h,{16}3h,6h,{4}4h[16:3],A8h[16:1],
{16}3V17[2:1],,,B6,Ch[16:1],,,E4,,,B5,B6,6h[8:1],,,5h,
{48}6,D7,A7,D8,{24}A8,3h[8:1],,,{8}2h,{16}1,7h,{4}A5h[16:3],{16}1h[8:1],,,8,
{48}2,D3,A3,D4,{12}A4,{48},{16}7h[16:1],6,,,5,,,6,4,{4}A5h[4:1],
{48}2,D2h[96:1],A1h[96:1],D1h[96:1],{12}A8h[96:1],{48},{16}6h[16:1],5h[16:1],,,8,{48}7/1h[16:3],D7,A6,D6,{12}A5,{24},,{8}5h[16:1],1h[16:1],
{48}6,D7,A7,D8,{12}A8,{48},{16}2h[16:1],1h[16:1],,,8,{48}3,D3,A2,D2,{24}A1,6h[16:1],{48},{16}8h[16:1],{4}A5h[16:3],
{8}4/3,2,3/5,{16}2,2,{8}3/6V84[16:3],7,6/A3h[16:1],A2h[16:1],
1,8,1/4,{16}2,2,{8}5/1-5[16:3],2,{4}1/A6h[16:1],
{48}6,D7h[96:1],A7h[96:1],D8h[96:1],{24}A8h[96:1],3,,,{8}6/4,{16}7,7,{8}6/3V15[16:3],2,3/A6h[16:1],A7h[16:1],
8,1,8/4,{16}7,7,{8}3/8-4[16:3],7,{16}8/A2h[8:1],,,2,
{8}2,1,2/4,{16}1,1,{8}2/5-7-4[16:3],6,5/A2h[16:1],A1h[16:1],
8,1,8/4,{16}1,1,{32}3x/A5h[64:1],A6h[64:1],{16}A7h[64:1],3x,{32}A7h[64:1],A6h[64:1],{8}3xh[4:1]/A5h[64:1],{32}A5h[64:1],A6h[64:1],{16}A7h[64:1],
{48},D3,A2,D2,{24}A1,8,,,{8}7/5,{16}8,8,{8}7/4-2-5[16:3],3,4/A7h[16:1],A8h[16:1],
1V35[2:1],5,7,{16}8,8,{4}1-5[16:3],{8}1,{16}4,4,
{8}6x/4x,7/5,{16}4/8,A7,E7,A6,{4}E4h[16:3]/5x<8[8:1],{8}5,{24}A6h[48:1],A7h[48:1],A8h[48:1],
{8}5/A1h[48:1],6,5/3>7[12:1],{16}2,2,{8}3/4,{32}2x,1x,8x,7x,{4}6x/B2h[16:3],
{48}8,D8h[96:1],A7h[96:1],D7h[96:1],{24}A6h[96:1],1,{48},,,,{16}5,A2,E3,A3,{4}E6h[16:3]/4x>1[8:1],{8}4,{24}A3h[48:1],A2h[48:1],A1h[48:1],
{8}4/A8h[48:1],3,4/6<2[12:1],{16}7,7,{8}6/5,{32}7x,8x,1x,2x,{8}3x/B7h[16:3],{16}4,4,
{8}4,3,{16}6/4p7[32:5],3,7,3,4/6,,,4h,{32}4,3,2,1,{8}8/3h[8:1],
{48}6,D6,A5,D5,{24}A4,2,,,{8}3/5,{16}2,2,{32}6x/A2h[64:1],A3h[64:1],{16}A4h[64:1],6x,{32}A4h[64:1],A3h[64:1],{8}6xh[4:1]/A2h[64:1],{32}A2h[64:1],A3h[64:1],{16}A4h[64:1],
{48},D7,A7,D8,{24}A8,4,{48},,,,{16}3/5q2[32:5],6,2,6,5/3,,,5h,{32}5,6,7,8,{8}1/6h[8:1],
{48}3,D4,A4,D5,{24}A5,7,,,{8}6/4,{16}C,C,{2}Ch[2:1],
(122){1}8b<1[4:5],
7<8[4:5],
6>7[4:5],
5p6[4:3],
1b>8[4:5],
2>1[4:5],
3<2[4:5],
4q3[2:1],
(128){4}7-4[12:1]/4-7[12:1],7/4-1[12:1],{8}4/5,{32}5<2[8:1],6<3[8:1],7>4[8:1],8>5[8:1],{8}1>6[8:1],5,
{24},,,1,8,7,{16}6,4-8[16:1],,,{2}4/7-5-1[8:1],
{4}2-7[12:1]/7-2[12:1],2/7-4[12:1],{8}7/1,{32}1>6[8:1],2>7[8:1],3<8[8:1],4<1[8:1],{8}5<2[8:1],1,
{24},,,5,4,3,{16}2,8-6[0.3516##0.1172]*pp4[0.3516##0.5859],,,{4}8,5V71[8:1],
5-3[16:1]/3-5[16:1],5/3-7[12:1],{8}3/4,{32}5<2[8:1],6<3[8:1],7>4[8:1],8>5[8:1],{8}1>6[8:1],5,
{32},,,,8,1,2,3,{16}4>7[8:1],5,,,{4}4/6p1[8:1],6/1V35[8:1],
1-7[16:1]/7-1[16:1],1/7-3[12:1],{8}7/8,{32}1>6[8:1],2>7[8:1],3<8[8:1],4<1[8:1],{8}5<2[8:1],1,
{32},,,,4,5,6,7,{16}8<3[8:1],1,,,{2}8/2h[#0.9375],
(70){12}B6,{576}B2,{64},,{96},{576}B3,{64},,{144},{12}B4,B3,{576}B7,{64},,{96},{576}B6,{64},,{144},{12}B5,2,{24}7,6,{12}5,7,{24}2,3,{12}4,
B2,{576}B6,{64},,{96},{576}B7,{64},,{144},{12}B8,B7,{576}B3,{64},,{96},{576}B2,{64},,{144},{12}B1,6,{24}3,2,{12}1,3,{24}6,7,{12}8,
2h[12:1],{24}6,6,{12}6/2h,7h[12:1],{24}3,3,{12}3/A7,A4h[6:1],{24}7h,7,{12}7,A5h[6:1],{24}A2,A2,{12}A2,
(120){16}A3h[32:1],A3h[32:1],A3h[32:1],A3h[32:1],A3h[32:1],A3h[32:1],A3h[32:1],A3h[32:1],A3h[32:1],A3h[32:1],A3h[32:1],A3h[32:1],A3h[32:1],A3h[32:1],A3h[32:1],A3h[32:1],
A3h[32:1],A3h[32:1],A3h[32:1],A3h[32:1],A3h[32:1],A3h[32:1],A3h[32:1],A3h[32:1],A3h[32:1],A3h[32:1],A3h[32:1],A3h[32:1],A3h[32:1],A3h[32:1],A3h[32:1],A3h[32:1],
A3h[32:1]/5x-8>1[8:1],A3h[32:1],6h/A3h[32:1],A3h[32:1],A5/A3h[32:1],A3h[32:1],A3h[32:1],A3h[32:1],A3h[32:1]/2-6>5[32:5],A3h[32:1],2h/A3h[32:1],A3h[32:1],A2/A3h[32:1],A3h[32:1],A3h[32:1],A3h[32:1],
4/A3h[32:1],A3h[32:1],5/A3h[32:1],A3h[32:1],{48}6/A3h[32:1],D7,A7,D8/A3h[32:1],A8,D1,{16}A3h[32:1],A3h[32:1],8/A3h[32:1],A3h[32:1],8/A3h[32:1],A3h[32:1],A3h[32:1]/A8h[8:1],A3h[32:1],A3h[32:1],A3h[32:1],
A3h[32:1]/7v4<5[8:1],A3h[32:1],6h/A3h[32:1],A3h[32:1],A7/A3h[32:1],A3h[32:1],A3h[32:1],A3h[32:1],A3h[32:1]/6-2<1[8:1],A3h[32:1],6h/A3h[32:1],A3h[32:1],A6/A3h[32:1],A3h[32:1],A3h[32:1],A3h[32:1],
8/A3h[32:1],A3h[32:1],7/A3h[32:1],A3h[32:1],{48}6/A3h[32:1],D6,A5,D5/A3h[32:1],{24}A4,A3h[32:1],{48},{16}A3h[32:1],4/A3h[32:1],A3h[32:1],4/A3h[32:1],A3h[32:1],4h[4:1]/A3h[32:1],A3h[32:1],A3h[32:1],A3h[32:1],
A3h[32:1],A3h[32:1],5,5,A3h[32:1],A3h[32:1],6h,6h,A3h[32:1],A3h[32:1],A7,A7,A3h[32:1],A3h[32:1],8,8,
2h,2h,4,4,A2h[32:1],A2h[32:1],5h,5h,A2,A2,6,6-3[16:1],2-5[16:1],2,6,6,
{1}2,
E
