&title=【电棍】珈乐逼海盗
&artist=滴锥
&first=-0.613
&des=心白-HW
&des_5=心白-HW
&lv_5=14
&inote_5=(75){4},{12},,,1,{24}8,1,,8,{12}1,{24}8,1,1,1,
{12}8,{24}1,8,,1,{12}8,{24}1,8,8,8,{12}1,{24}8,1,,8,{12}1,{24}8,1,2,3,
{12}4-2[24:1],7,{24}7,6,{12}5/4-6[24:1],1,{24}1,2,{12}3/4-8[24:1],7,{24}7,6,{12}4/5,{24},,7,8,
{12}1-7[24:1],4,{24}4,3,{12}2/1-3[24:1],6,{24}6,7,{12}8/1-5[24:1],4,{24}4,3,{12}1/2,{24},,7,6,
{12}5<7[24:1],2,{24}3,4,{12}5>3[24:1],8,{24}7,6,{12}5-1[24:1],2,{24}3,4,{12}5,,2h[24:1]/8h[24:1],
1h[24:1]/7h[24:1],8h[24:1]/6h[24:1],5h[24:1]/7h[24:1],6h[24:1]/4h[24:1],5h[24:1]/3h[24:1],4h[24:1]/2h[24:1],{4}1h[6:1]/Ch[4:1],{12}1-4-2[8:1],{24},,2,8,
{6}1-6-8[8:1],{24}8,2,{12}1-5-1[8:1],{24},,2,8,{6}1w5b[12:1],{24}8,2,{12}1-6-8[8:1],{24},,7,3,
{6}1-4-2[8:1],{24}3,7,{12}1-5-1[8:1],{24},,7,3,{6}1w5b[12:1],{24}3,7,{12}1,{24},,3,4,
{12}5/2,7/8,{24}6,5,{12}7/4,1/2,{24}4,5,{12}6/3,1/8,{24}7,2,8-5-7[8:1],1,,,6,2,
{6}8-3-1[8:1],{24}2,6,{12}8-4-8[8:1],{24},,6,2,{6}8w4b[12:1],{24}2,6,{48}8,{16},,,{64},{192},{96}E5/E4/A4,B5/B3/B4,
{2}Cf/B6/B2,A8/D8/A7,
D2/A2/D3,D6/A5/D5,
{4}8h[4:1],2h[4:1],4h[4:1],6h[4:1],
{12}8h[48:1],4h[48:1],7h[48:1],3h[48:1],6h[48:1],2h[48:1],{4}5w1[16:1],5x,
{96}1x/8x-4[24:1],B1,7/C,B5,{24}6h[8:1]/A5,{48},,,,,,,,1x/8x,2,{24}3h[8:1],{48},,,,,,,,8x-4[24:1],7,{24}6-2[24:1],{48}3x,2,{24}1,{48}6x,5,{24}4,{4},{96}8x/1x-5[24:1],
B8,2/C,B4,{24}3h[8:1]/A4,{48},,,,,,,,8x/1x,7,{24}6h[8:1],{48},,,,,,,,1x-5[24:1],2,{24}3-7[24:1],{48}6x,7,{24}8,{48}3x,4,{24}5,,,,5,5,1,
{12}7h[12:1],{24}3,1,1,5,{12}7h[12:1],{24}3,3,5,1,{48}7x-3[24:1],6,{24}5-1[24:1],{48}2x,1,{24}8,{48}5x,4,{24}3,{48},,,,,,,,,,,,1x/5x,
2/6,{24}3h[12:1]/7h[12:1],{48},,,,,,,,4x/8x,3/7,{24}2h[12:1]/6h[12:1],{48},,,,,,,,2x-6[24:1],3,{24}4-8[24:1],{48}7x,8,{24}1,{48}4x,5,{24}6,{48},,,,,,,,,,,,7b,
6,{24}5,{48}8b,7,{24}6,{48}1b,8,{24}7,5b/1b,3b/7b,{48},,,,,,,,2b,3,{24}4,{48}1b,2,{24}3,{48}8b,1,{24}2,4b/8b,6b/2b,{48},,,,,,,,6b,
5,{24}4,{48}7b,6,{24}5,{48}8b,7,{24}6,4b/8b,2b/6b,{48},,,,,,,,3b,4,{24}5,{48}2b,3,{24}4,{48}1b,2,{24}3,5b/1b,7b/3b,,6/5,5/4,4/3,
{48}2b,3,4,5,1b,2,3,4,8b,1,2,3,{24}8b/4b,6b/2b,,3/4,4/5,5/6,{48}7b,6,5,4,8b,7,6,5,1b,8,7,6,{24}1b/5b,3b/7b,,6/4,5/3,4/2,
{48}1b,2,3,4,1b/5,2,3,4,1b/5,2,3,4,{24}1b/5b,7b/3b,,8/2,7/3,4/6,{48}5,4,3,2,8,7,6,5,8,7,6,5,{24}8b/4bw8[24:1],6b/2b,{96},,,,,,,,,,,,,,,,,Cf,
E
