&title=TALALALALALALALALALALALAAAAA LALAAAAAAAAAAAAA
&artist=Hoshimachi Suisei
&first=0.1
&des=Jitjinsu
&lv_5=14+
&inote_4=
&inote_5=(208)
{1},{4}5h[2:1],1h,
{16}1,5,1,5,8,4,8,4,
{32}1x,2,3,4,7x,6,5,4,1x,2,3,4,7x,6,5,4,8x,1,2,3,8x,7,6,5,8x,1,2,3,8x,7,6,5,
{8}8-3[8:1]/4-7[8:1],,48,,1-6[8:1]/5-2[8:1],,51,,1<2[2:1],,,4,4h[2:1],,,,8^3[8:1],,8,5-1[8:1],,5,4h[4:1],,
{32}1x,8,7,6,2x,3,4,5,1x,8,7,6,2x,3,4,5,8x,7,6,5,4/3x,2,1,8,7x/5x,4,3,2x,1,8,7,6,{8}1b-5[8:1]/5b-7[8:1],,15,,8b-4[8:1]/4b-2[8:1],,8<1[4:1]/4,,1b/8b,,,4,3-1[8:1]/5,,,4b,1b/5b,2b/6b,3b/7b,4b-2-5[4:1]/8b,,48,,7h[8:1],
{32}2,3,4,5,6,7,8,1,62,5,4,3,2,1,8,7,6/2,1,8,7,6,5,4,3,2/6,7,8,1,2,3,4,5,
{32}6h[8:3]/2,1,8,7,,5,4,3,2,1,8,7,,5,4,3,2h[8:3]/6,7,8,1,,3,4,5,6,7,8,1,,3,4,5,
{8}6b-4-2-8[8:3]/2b,,,1,1h[4:1],,6-1[8:1],,6/4-8[8:1],,4/7-3[8:1],,1-4[8:1]*-5[8:1],,1,,36,,15,,
{32}1/5x,2/6x,3/7x,4/8x,5,6,7,8,1/5x,2/6x,3/7x,4/8x,5,6,7,8,
{8}1^4[8:1]/5^8[8:1],,,,1-6[8:1]*-7[8:1],,1-3[8:1]*-4[8:1],,1w5[8:1],,,,{32}3,4x,7,6x,3,4x,7,6x,3,4x,7,6x,3,4x,7,6x,{8}2pp4[8:1]/8qq6[8:1],,,,5w1[4:1],46,37,,,,1b/5b,3b/4b,2b/7b,8b/5b,1b/6b,2b/5b,3b/7b,1b/2b,,,3b/7b,5b/6b,,,{32}1>8[4:15],8,7,,,,,,{8},,6-2[2:5]*-2-6[2:10],
