&title=Future Eve
&artist=sasakure.UK
&first=0
&des=Yell0wduck
&lv_5=13+
&inote_5=(190){8},,,,1,2,3,4,5h[8:4]/6h[8:4],,,,,47,,34,3h[8:4]/4h[8:4],,,,,25,,57,5h[8:4]/7h[8:4],,,,,48,,24,2h[8:4]/4h[8:4],,,,,15,,,18,2,38,7,26,3,47,6,45,{16}3,4,2,,45,,6,5,7,4,8,3,,,
2h[16:3]/4h[16:3],,,,15,,,5h[16:2]/7h[16:2],,,48,,,3h[16:2]/4h[16:2],,,25,,,5h[16:2]/6h[16:2],,,47,,,1h[16:2]/8h[16:2],,,2b/7b,,2b/7b,,,,
{8}18,,2-5[8:1],5,6,7-4[8:1],4,3,2,1-5[8:1],6,7,8-4[8:1],4,3,2,1b/5b,,7-4[8:1],4,3,2-5[8:1],5,6,7,8-4[8:1],3,2,1-5[8:1],5,6,7,8b/4b,,2-5[8:1],1,8,7-4[8:1],8,1,2,3-8[8:1],4,5,6-1[8:1],5,4,3,4b/8b,,
5-8[8:1],4,3,2-5[8:1],1,8,7,6h[1024:1],5h[1024:1],4h[1024:1],3h[1024:1],2h[1024:1],1q4[4:3],8h[1024:1],,,,,,,,,{1}5<8[2:1],8p5[4:3],4>1[2:1],{4}6V84[2:1],,4<8[2:1],,8qq4[4:3],,4,,1w5[4:3],,,,,
{8},24,35,46,57,,1-5[4:1]/8,,5V31[8:3],,8-6[8:1],,,,2-4[8:1],,7-5[8:1],,1w5[8:1],,,,8<4[4:1]/1,,4pp8[8:3],,1-3[8:1],,,,7<4[8:1],,1>4[8:1],,8w4[8:1],,,,
1/2>4[8:1],,1,,8/7<5[8:1],,8,,1q5[4:1],,5q1[4:1],,1>5[4:1],,5<1[4:1],,1>1[2:1]*q1[2:1],,,,,,,,,{16}7h[8:1]/4h[8:1],,,6h[8:1]/3h[8:1],,,2b/5b,,
{8},,,,5-7[8:1],3h[8:1],5,3h[8:1],8-6[8:1],4h[8:1],8,4h[8:1],6,5h[8:1],6,6h[8:1],4-2[8:1],6h[8:1],4,6h[8:1],1-3[8:1],5h[8:1],1,5h[8:1],3,4h[8:1],3,3h[8:1],
6<8[8:1],3h[8:1],6,3h[8:1],{24}7,6,5,{8}4h[8:1],2,5h[8:1],1,5h[8:1],2,6h[8:1],3>1[8:1],6h[8:1],3,6h[8:1],{24}2,3,4,{8}5h[8:1],7,4h[8:1],8,3h[8:1],7,2,
(126.667){12}15,2,3,48,7,6,1<6[8:1]*>4[8:1]/5,2,3,1,,,84,7,6,51,2,3,4V28[8:1]/8V64[8:1],15,15,48,,,2/5>1[6:1],36,47,5/8h[6:1],,,7/4<8[6:1],63,52,4/1h[6:1],,,
(190){8}82,3,4,7,6,5,{6}2h[16:1]/4,3h[16:1]/5,4h[16:1]/6,6h[16:1]/7,4h[16:1]/5,2h[16:1]/3,{12}6,5,7,3,4,2,6,4,8,3,5,1,{8}6V85[8:3]*V83[8:3],,,,,,{6},
{8}18,,2-5[8:1],5V38[4:1],2,8,7,6,5,,8-4[8:1],4V61[4:1],8,1,2,3,4-1[8:1],,4/7-4[8:1],,7/1pp6[2:1],,15,5h[8:3],,,,,
54,3,26,1,78,,2-6[8:1],6V48[4:1],2,8,7,6,51,,7-3[8:1],3V51[4:1],7,1,2,3,4-8[8:1],,4^1[8:1]*^7[8:1]/8b,,,,5qq5[4:1],,3b/5b^8[8:1],,,,
21,3,45,6,7v4[8:1]/5-1[8:1],,57,,71,6,54,3,2v5[8:1]/8v5[8:1],,82,,3h[2:1]/8,7,6,5,4-8[8:1],4,2-5[8:1],2,7-3[8:1],7,5-1[8:1],5,8w4[8:1],,8b,,
34,1,56,8,1>4[8:1],,7<4[8:1],7,8-4[8:1],8,6,,1q5[8:1]/2>5[8:1],,1/2b,,8p4[8:1]/7-4[8:1],,7/8b,,4-7[8:1],,4/2v5[8:1],,2/8p4[8:1],,8/4<3[4:3],3,2h[4:3],,,,,,,,
1h[8:1]/8h[8:1],,{16}3h[12:1]/4h[12:1],,,2h[12:1]/5h[12:1],,,5h[12:1]/6h[12:1],,,4h[12:1]/7h[12:1],,,3h[12:1]/4h[12:1],,,1h[12:1]/5h[12:1],,,5h[12:1]/6h[12:1],,,4h[12:1]/8h[12:1],,,2b/7b,,2b/7b,,,,,,18,,,,
{4}7qq4[2:1],3,2,1pp5[4:3],5,6,7,8-4[8:1],4-1[8:1]*-7[8:1],,2pp5[2:1],6,7,8qq4[4:3],4,3,2,1q5[8:1],5>2[8:1]*v8[8:1],
{8},,27,3,47,6,2-6[8:1]/5,,7-4[8:1],7,3-8[8:1],3,7h[8:3],,,4,36,25,1>5[4:1]/4,,,,
6h[4:1],,7h[4:1],,8h[4:1],,1h[4:1],,5,26,37,4>1[4:1]/8,,8,7,6,5,3/4<8[4:1],,1,2,3,4,5>1[4:1]/6,,7,8-3[8:1],,2-6[8:1],,7-4[8:1],,(63.333)5qq2[4:3]*<4[8:3]
,,,,,,,,,,{24},
(190){8}4>1[4:3],,,5h[8:1],,5h[8:1],,,5<8[4:3],,,4h[8:1],,4h[8:1],,,4>1[4:3],,,6h[8:1],,6h[8:1],,,5<8[4:3],,,3h[8:1],,3h[8:1],,,
4>8[4:3],,,7h[8:1],,6h[8:1],,,5<1[4:3],,,2h[8:1],,3h[8:1],,,4>8[4:3],,,7h[8:1],,6h[8:1],,,(47.5){32}5w1[32:1],,,1h[32:1],,1h[32:1],,,,,,,
(190){8},,,,1b/8b,,7-4[8:1],4V61[4:1],7,1-5[8:1],2,3,4,,1-5[8:1],5V38[4:1],1,8-4[8:1],7,6,5^8[8:1],,5/2^5[8:1],,2/8z4[8:3],,83,3h[2:1],,,,
5h[4:1],,4,36,27,18,,7-3[8:1],3V51[4:1],7,1,2,3,48,,2-6[8:1],6V48[4:1],2,8,7,6,5qq5[4:1],,5bpp5[4:1]/3b,,,,4pp7[8:3]*qq1[8:3],,4b,,,,
78,6,5/4q8[8:1],3,2v5[8:1]/4,,12,,28,3,4/5-2[8:1],6,7v4[8:1]/5,,78,,6h[2:1]/1,2,3,4,5-1[8:1],5,7-4[8:1],7,2-6[8:1],2,4-8[8:1],4,1>4[8:1]*<6[8:1],,1b,,
65,8,43,1,8<5[8:1],,2>5[8:1],2,1-5[8:1],1,3,,1q5[8:1]/2-5[8:1],,2b/1b,,8p4[8:1]/7<4[8:1],,8b/7b,,4-7[8:1],,4/2v5[8:1],,2/8p4[8:1],,8/4<3[4:3],3,2h[4:3],,,,,,,,
1h[8:2],,,{16}6,5,7,4,8h[16:3],,,,3,4,2h[16:3],,,,6,5,7^4[8:1],,4-8[8:1],,7,,1,,
{8}2,3-1[8:1],,3/5v2[8:1],,5/7-4[8:1],,7/1-6[8:1]*^6[8:1],2,1-4[8:1]*^4[8:1],,1-5[8:1],,1w5[8:1],,1,,
37,,{16}2,4,2,4,3,5,3,5,4,6,4,6,5,7,5,7,3,4,2,6,5,7,1h[8:3],,8,,7,,
{8}6-4[8:1],,6/2-5[8:1],,7V51[4:1]/2,,17,2,3-5[8:1],,3/8^3[8:1]*^5[8:1],,8w4[8:1],,8,,2b/6b,,
{16}2,4,3,5,4,6,5,7,2,1,3,8,4,7,5,6,2,4,3,7,5,6,1,4,3,8,5,6,,
{8}4>1[8:1],,7<4[8:1]/4,,7/1s5[4:1],,16,7,8-4[8:1],,2-5[8:1]/8,,2/7-5[8:1]*-3[8:1],,7b,,1/2b>5[8:1],,5,6,7b<4[8:1]/8,,3,2,1bq5[8:1]/8,,6,7,8bp4[8:1]/1,,
3,2,1-5[8:1],,1/7-4[8:1],,7/2-5[8:1],,26,7,8v5[8:1],,1>4[16:3]/8,,
{16}5,6,7,8,(9.05){336}1w5[168:1]/5,6,7,8,1h[21:5]/5,{8},,E
