&title=凶夢伝染
&artist=ALI PROJECT
&first=0
&des=Dororo
&lv_5=13
&inote_5=(145.1)
{1},
{16}4b/5b,,,,{12}3,4,2,{16}2h[4:1],,,,{12}6,5,7,
{16}7h[4:1],,,,{12}2,4,1,{16}1h[4:1],,,,{12}7,5,8,
{16}8h[4:1],,,,{12}2,4,3,{16}3h[4:1]/8,,,,{12}7,5,6,
{16}6h[4:1]/1,,,,{12}1,4,2,{16}2h[4:1]/7,,,,{12}8q5[3:1]*p3[3:1],5,7,
{16},,,,,,,,
{16}2b/8b,,28,,3b/7b,,37,,4b/6b,,46,,2,8,2,8,
{16}3/7-3[8:1],,1,,7,,1,,4-8[8:1],,2,,4,,2,,
{16}6/2-6[8:1],,8,,2,,8,,5-1[8:1],,7,,5-2[8:1]*-8[8:1],,7,,
{16}5,,,,{12}7,7,7,5,5,5,3,3,3,
{32}1b,8,7,6,5,4,3,2,1b/5b,,,,,,,,7b,8,1,2,3,4,5,6,3b/7b,,,,,,,,
{16}5pp4[2:1],,,,,,,,,,,,1^4[8:1],,,,
{16}1bpp8[2:1],,,,,,,,,,,,5,,,,
{16}6qq3[4:3],,,,,,4,,4,,,,2,,,,
{16}1^6[4:1],,,,6<3[2:1],,,,5q3[4:1],,,,,,,,
{16},,,,,,4,,4,,,,35,,,,
{16}8^3[4:1],,,,3>6[2:1],,,,4h[4:1],,,,,,,,
{16}3pp6[4:3],,,,,,5,,5,,,,7,,,,
{16}8^3[4:1],,,,3qq7[2:1],,,,4pp6[4:1],,,,,,,,
{16},,,,,,5,,5,,,,46,,,,
{16}1^6[4:1],,,,6pp2[2:1],,,,5h[4:1],,,,,,,,
{16}6b^3[4:1],,,,,,2,,2^7[4:1],,,,7,,,,
{16}6V47[2:1],,3,,4-7[4:1]*-1[4:1],,,,,,,,,,,,
{16}2pp4[4:1]/6,,,,,,6,,6pp8[4:1],,,,1,,,,
{16}2>8[2:1],,6,,5^8[4:1]*-2[4:1],,,,,,,,,,,,
{16}3^6[4:1],,,,,,7,,7^2[4:1],,,,2,,,,
{16}3V51[2:1],,6,,5-1[4:1]*-7[4:1],,,,,,,,,,,,
{16}7qq5[4:1]/3,,,,,,3,,3qq1[4:1],,,,8,,,,
{16}7s3[2:1],,2,,3-8[4:1],,,,,,,,,,,,
{16}2p2[4:1],,4,,6p6[4:1],,,,6^1[8:1]*^3[8:1],,,,,,,,
{16}2pp2[4:1],,8,,6pp5[3:1],,,,6-4[12:1],,,,,,,,
{16}7q7[4:1],,5,,3q3[4:1],,,,3^8[8:1]*^6[8:1],,,,,,,,
{16}7qq7[4:1],,1,,3qq4[3:1],,,,3-5[12:1],,,,,,,,
{16}1b>6[4:1]/6b,,,,,,8,,8^3[8:1],,,,8<3[4:1]/7,,,,
{16},,1,,1^6[8:1],,,,12,,,,4-7[8:1],,2,,
{16}8h[4:1],,,,5-2[8:1],,7,,1h[4:1],,,,4-1[8:1],,,,
{16}3h[4:1]/4b,,,,5-8[8:1],,,,{16}6h[4:1]/5b,,,,1,,,,
{16}6b/8b,,68,,5b/1b,,51,,4b/2b,,42,,{32}1,8,7,6,5,4,3,2,
{16}1-6[8:1],,7,,1,,5,5,8-4[8:1],,6,,8,,7,7,
{16}5-2[8:1],,8,,5,,1,1,3-7[8:1],,8,,3,,6,6,
{16}1,,28,,{12}37,37,37,{16}2b/5b,,7b/8b,,1b/2b,,4b/7b,,
{16}8,2,5,3,8,1,6,3,7,1,6,4,{32}8,1,2,3,4,5,6,7,
{16}8b-3[8:1],,2,,8,,4,4,1-5[8:1],,3,,1,,2,2,
{16}4-7[8:1],,1,,4,,8,8,6-2[8:1],,1,,6,,3,3,
{16}8,,17,,{12}24,24,24,45,45,45,57,57,57,
{32}4b,3,2,1,8,7,6,5,4b/8b,,,,,,,,6b,7,8,1,2,3,4,5,2b/6b,,,,,,,,
{16}3-8[8:1]/4,,2,5,3,,7,,6,6,8,8,1,1,3,3,
{16}6-1[8:1],,7,4,6,,2,,3,3,1,1,8,8,6,6,
{16}3h[4:1],,1,,4h[4:1],,8,,5h[4:1],,1,,6h[4:1],,8,,
{16}5h[4:1],,1,,4h[4:1],,8,,3-7[8:1]*-1[8:1],,1,,3b,,,,
{16}5^2[8:1],,4,,6,,8,,1^6[8:1],,8,,2,,4,,
{16}37,,1,6,4,,8,3,{12}5,6,6,4,3,3,
{16}7pp2[2:1],,,,,,,,3pp6[2:1],,,,,,,,
{16}8pp4[2:1],,,,,,5h[8:3],,,,,,,,,,
{16}1b,,,,,,,,,,,,,,,,
{16},,,,,,,,,,,,,,,,
{16},,,,,,,,,,,,,,,,
{16},,,,,,,,,,,,,,,,
