&title=シェアト[ Album Edit ]
&artist=ぽんず
&first=0
&lv_5=13+
&des_5=旧谱重传
&inote_5=
(120){4},,,,{8}3,
3,3,1-5[8:1],{16},7,{8},8,8/3,
{16},8-5[8:1],{8},1,1b,{16},2/6,{8},7,7,
{16},5-1[8:1],{8},8,8b,{16},5/3,{8},1,1b,
{16},5<8[8:1],{8},1,1,{16},3/2,{8},3-7[8:1],7,
{16},2,{8},5,2/7-1-5[4:1],{16},2,{8},2,2,
{16},7/2-4-8[4:1],{8},7,7,{16},7,{8},2/4-6-1[4:1],2,
{16},2,{8},2,5/3-6-1[4:1],{16},5,{8},5,5,
{16},7/2-8-6[4:1],{8},7,7,{16},3,{8},2,{16}5,5,
5,5,5,5,{8}5,3b,{16}6,3,6,6,3,4,4,3,
4,3,,7,8,7,8,4,6,4,7,3,5,2,4,2,
4,3,3,4,{8}6/3,4/6b,{16}4,3,,6,4,6,{8}4/2,
5/4,6/2,4,3b/5b,{16}6,5,,6,4,5,{8}5pp5qq5[16:3],
,,,{16}1,1,2,7,3,5,3,4,2,5,
{8}5,3,{16}5,3,4,3,2,3,5,4,5,3,5,3,
{8}5,2,6,4,3,{16}8-3[16:1],4,6,4,{8}8-5[16:1],
,8,2,2,{16}7,7,,6,5,6,{8}5,
4,2/7,5b,3/5pp5>4[8:1],{16},3,{8},{16}3,{8},{16}3,
,7,{8}7,{16}2,3,{8}4p4>3[16:3],{16},6,{8},{16}6,{8},{16}6/3,
,,,3,5,3,6,6,3,3,6,6,4,4,2/1,3x,
{8}2/1,2/1,{16}6,6,5,5,4,4,3,3,2,2,{8}1-5[8:1]/8-6[8:1],
3,1/8,,4/5pp5q5[4:1],{16},1,{8},{16}1,{8},{16}2,
,4,{8}4,{16}5,7,{8}5/4qq4pp4[4:1],{16},4,{8},{16}1,{8},{16}1,
{8},{16}5,3,5,3,3,7,7,5,5,4,4,8,8,1,
{8}1,3/6,{16}3,6,3,6,3,6,2,7,2,7,1,8,
1,8,{8}1,,8b<8[8:29]*>8[8:29],{1},,,{4},,,{8},4b/8-5-2[8:1],
,8,,{16}6,5,
,6,{8}5,7/2,4b/1-4-7[8:1],,1,,{16}3,4,
,3,{8}4,7,6b/4-2-6[8:1],,4/6b,,{16}5,7,
,7,{8}5,6/4b,{16}6,5,{8}6,{16}3,4,{8}3,{16}8,7,
{8}6,{16}1,2,{8}3,1b/7-5-3[8:1],,7/1b,,{16}4,3,
,3,{8}4,6/3,7b/2-5-7[8:1],,2/7b,,{16}6,2,
,2,{8}6,6/2,6b/4-1-6[8:1],,4/6b,,{16}7,6,
,6,{8}7,4/7,{16}7,8,{8}7,{16}2,1,{8}2,{16}7,6,
{8}5,{16}2,3,{8}4,4/Ch[16:59],{16},4,{8},4,6,
{16},6,{8},6,2,{16},2,{8},2,5,
{16},5,{8},5,8,{16},8,{8},8,5,
{16},5,{8},5,6,{16},6,{8},6,4,
{16},4,{4},{8}3b/8V62[8:1],,8/3b,{16},6,5,6,
5,6,,5,4,5,{8}8-5-3[8:1],{16}3,4,{8}8/2b,{16},6,6,4,
3,4,{8}2,5,3,{16}5,3,5,2,4,5,{8}6/8-6-2-4p4[16:3],
{4},{8}1x,1bx,{16}4,4,,3,4,3/7p7pp7[8:1],{8},,,{16}5,
5,4,4,3,3,2,2,1,1,{8}6,
3,5/4,7,6,{16}5,5,6,6,7,7,8,8,
1,1,{8}4/3,6,4,{16}5,5,2,2,{8}8-3-6[8:1],3-7-3[8:1],
8,{4},{8}6b,{16}2,2,,3,4,3,4,3,
5,3,{8}5,{4}2/7,{8},,,C,
{16},C,{8},C,{32}1x,2x,3x,4x,5x,6x,7x,8x,{8}2-4pp4[16:3]*-8qq8[16:3],{16},,,,,,,6,
2,2,4,5,3,3,1,8,2,7,3,4,
{8}3,4,{16}6,5,6,5,4,3,4,3,4/8-6[8:1],3,{8}2-5-1[16:3],
4,2,,4pp4qq4[4:1],{4},7h[16:3],
,{16}5,5,{8}4/6q6<8[4:1],{16},4,{8},{4}2h[16:3],
{16},,,1,8,1,2,2,6,6,3,3,5,5,7,7,
{8}4,4/6,{16}2,2,4,4,3,3,2,2,6,6,4,4,
{8}7,7/3,,1b>1b[16:59]/8b-2-4-6-8>1[16:59],{1},,,{4},,,{8},4b/8bV62[8:1],
,8b/4,,{16}4,3,
,3,{8}4,5/3,7b/2-5-7[8:1],,7b/2,,{16}6,4,
,4,{8}6,5/2,6b/4-1-6[8:1],,4/6b,,{16}3,2,
,2,{8}3,2/3,{16}5,6,{8}5,{16}4,3,{8}4,{16}8,7,
{8}6,{16}1,2,{8}3,2b/7V53[8:1],{16}5,5,{8}7,,{16}6,2,
,6,{8}2,6/3,2-4-6[8:1],{16}4,4,{8}2/6b,,{16}7,5,
,5,{8}3,5/3,2b/8-4-2[8:1],,8/2b,,{16}5,3,
,3,{8}5,6/3,{16}7,8,{8}7,{16}2,1,{8}2,{16}8,7,
{8}6,{16}3,2,{8}1,6/3-8[8:1],{16}4,4,{8}3,{16}4,5,{8}6,
7/8,{16}1,2,{8}3,2/7-3[8:1],{16}5,5,{8}7,{16}8,1,{8}2,
5,{16}3,1,{8}3,7,{16}5,6,{8}5,{16}4,5,{8}4,
4/5,{16}3/5,6/2,{8}7/1,{16}8,7,{8}8,{16}1,8,{8}1,{16}4,5,
{8}4,{16}5,4,{8}5,3/8-3[16:1],{16}6,5,{8}8,{16}7,7,{8}7,
3/6b,{16}2,8,{8}2,3/1-6[16:1],{16}5,4,{8}1,{16}2,2,{8}2,
3/5b,{16}3,3,{8}4/2,5b/3,{16}2,2,{8}2,{16}8,3,{8}8,
5,{16}2,2,{8}1/8>3[16:1],{16}6,6,{8}8,{16}8qq8[8:1],1,{8}1,8pp8[8:1],
,,,B7/5w1[8:25],,,,,,,,B7,
,,,,,,,B4,
E
