&title=End Time
&artist=Cres.
&first=0
&des=Kino.
&wholebpm=180
&shortid=844
&genre=ゲームバラエティ
&cabinet=SD
&version=maimai DAiSUKE
&clock_count=4
&lv_7=[狂]
&inote_7=(180){1},
{4}6q1[3:1]/2,,,8,
{4}8,7,6,5,
{4}3p8[3:1]/7,,,1,
{4}1,2,3,4,
{1}5-1[4:3],
{1}4-8[4:3],
{1}5w1[4:3],
{1},
{1},
{8},2,5,5,3-7[8:1],7-2[8:1],3,6,
{8},7,4,4,6-2[8:1],2-7[8:1],6,3,
{8},3,6,6,4-8[8:1],8-3[8:1],4,7,
{8},6,3,3,5-1[8:1],1-6[8:1],5,2,
{8},3,6,6,4-8[8:1],8-3[8:1],4,7,
{8},7,4,4,6-2[8:1],2-7[8:1],6,3,
{8},2,5,5,3-7[8:1],7-2[8:1],3,6,
{8},6,3,3,5-1[8:1],1-6[8:1],5,2,
{8},2,3/5,8,5/3-7[8:1],7-2[8:1],3,6,
{8},7,6/4,1,4/6-2[8:1],2-7[8:1],6,3,
{8},3,4/6,8,6/4-8[8:1],8-3[8:1],4,7,
{8},6,5/3,1,3/5-1[8:1],1-6[8:1],5,2,
{8},2,3/5,6/2,5/3-7[8:1],7-2[8:1],3,6,
{8},7,2/8,4,8-4[8:1],3,8,3,
{16}1,8,2,7,1,8,3,6,1,8,4,5,1,8,3,6,
{16}4,5,4,5,4,3,4,3,2,3,2,3,{32}1,8,7,6,5/1,8/4,3/7,6/2,
{8}1b,,,,,,2,8,
{8}2h[4:3]/1,,,,,,7,1,
{8}7h[4:3]/8,,,,,,2,8,
{2}3h[2:1]/4,1h[2:1],
{1}8h[1:1],
{2}6h[2:1],1h[2:1],
{1}8w4[4:3],
{1},
{2}3h[2:1]/7,1h[2:1],
{2}2h[2:1],8h[2:1],
{1}1-5[4:3],
{2}8h[2:1],6h[2:1],
{8}5h[4:3],,,,,,1h[8:1],8h[8:1],
{2}1h[2:1],3h[2:1],
{1}4w8[4:3],
{2},{16}6,5,4/7,6,5/8,7,6/1,8,
{16}7b,,2,1/2,,,1/8,,7,7/8,,,2/7,,3/6,,
{16}4/5,,6,5/6,,,6/5,,3,3/4,,,1/8,,3/6,,
{16}5/4,,3,3/4,,,3/4,,6h[16:1],5,6,,8,,1,,
{16}2/7,,7,7/8,,2,2/1,,1-5[8:1]/8-4[8:1],2/7,3/6,,1/8,,,,
{16}2/7,,7,7/8,,,7/8,,2,1/,,,2/7,,3/6,,
{16}5/4,,3,3/4,,,3/4,,6,5/,,,1/8,,3/6,,
{16}7/2,,2h[16:1]/1,8,,7h[16:1]/8,1,,2h[16:1]/1,8,,8h[16:1]/1,2,3,4,,
{16}5/4,,3h[16:1],4,,2,1,2,8-4[8:1],,2,,8,,1,,
{16}2/7,,5h[16:1],8,,,7/8,,4h[16:1],1,,,2/7,,3/6,,
{16}5/7,,1h[16:1],4,,,3/4,,8h[16:1],5,6,,1/8-3[8:1],,3/6,,
{16}1-6[8:1]/8,,1,,7-4[8:1]/1,,7,,2>5[8:1]/7,,,2,8,7,6,,
{16}3,,4/6,3/7,2/8,,1,,2-6[8:1]/8,3/7,4/6-3[8:1],,2,,,,
{16}7,,1/8,1,,,1,,8/1,8,,,2/7,,3/6,,
{16}4,,5/4,5,,,5,,2/3,4,5,,6/7,5,4,,
{16}8,,2h[16:1]/1,1,,7h[16:1]/8,8,,1/8,2/7,3/6,,4/5,3/6,2/7,,
{16}1,,7h[16:1]/8,8,,2h[16:1]/1,1,,1/8,2/7,3/6,,1b/5b,,,,
{16}6,5,6,5,7,4,6,5,8,3,6,5,1,2,5,4,
{16}7,8,4,3,6,1,4,3,5,2,4,3,6,1,5,4,
{32}8,1,6,5,8,1,6,5,{24}8,7,6,2,3,4,{16}5/6,7,8,1,4,3,2,1,
{24}7,6,5,8,7,6,{32}1,8,7,6,5/1,8,7,6,5/8,1,2,3,4/8,1,2,3,{24}4/5,6,7,8,1,2,
{16}3,4,3,4,2,5,3,4,1,6,3,4,8,7,4,5,
{16}2,1,5,6,3,8,5,6,4,7,5,6,3,8,4,5,
{32}1,8,3,4,1,8,3,4,1,8,5,6,1,8,5,6,{24}1,2,3,8,1,2,7,8,1,6,7,8,
{16}3,4,2,5,3,4,1,6,{32}8,7,6,5,4/8,7,6,5,{24}4/3,2,1/8,7,6,5,
{16}3b,4,3,4,2,5,3,4,1,6,3,4,8,7,4,5,
{16}2,1,5,6,3,8,5,6,4,7,5,6,3,8,4,5,
{16}1,6,3,4,2,5,3,4,8,7,3,4,2,5,3,4,
{16}8,7,1,6,2,5,3,4,1,2,8,3,{32}7,6,5,4,3,2,1,8,
{16}4,5,4,5,3,6,3,6,1,2,3,4,8,7,6,5,
{16}3,4,3,4,2,5,2,5,8,1,2,3,7,6,5,4,
{16}3,4,3,4,3,2,3,2,1,2,1,2,1,8,1,8,
{16}2b,1,8,7,1b/6,8,7,6,8b/5,7,6,5,7b/4,6,5,4,
{16}2b,1,2,5,2b,8,2,4,3b,7,3,5,3b,1,3,6,
{16}2b,4,3,5,4b,6,5,7,5b,6,4,5,3b,4,2,3,
{16}1b,4,8,5,7b,6,4,5,3b,6,2,7,1b,8,2,4,
{16}3b,3,5,5,4b,4,6,6,1b,1,7,7,2b,2,8,8,
{16}3b,5,3,1,3b,5,3,1,4b,6,4,2,4b,6,4,2,
{16}3b,4,3,2,3b,5,3,1,3b,6,3,8,3b,7,3,4,
{16}3b,1h,5,7h,2,8h,4,6h,1,7h,3,5h,8,6h,2,4h,
{16}3b,1h,5,7h,2,8h,4,6h,1,7h,3,5h,8,6h,2,4h,
{1}8/3b<6[2:3],,
{1}3<6[2:3],,
{16}3,,,,3,,,,6,,,,6,,,,2/6,,4,,3/7,,5,,1/8,,3/4,,1/8,,5/6,,
{24}1/8,7,6,5/3,2,1,8/6,5,4,3/1,8,7,6/4,3,2,1/7,6,5,4/2,1,8,7/5,4,3,
{24}2,1,2,1,2,1,3,8,3,8,3,8,4,7,4,7,4,7,5,6,5,6,5,6,
{1}5b-1[4:9],,
{4},,,1,
(160){16}1,,,2,,,3,,(150)4,,,,8,,,,
(170){8}7h[21:22],,,,(160),,,(145),
(140){16}4h[2:1],,,,,,,,5h[34:57],,,,,,,(120),
{1}6h[1:1],
{1},
{1},
{1},
E
