&title=Re:call
&artist=霜月はるか
&first=0
&des=Azuki
&lv_5=12+
&inote_5=(93)
{1},,
{1},
{1},
{16}6h[4:3]/2<3[8:4],,,,,,,,
{16},,,,,,,,
{16}2h[4:3]/3>4[8:4],,,,,,,,
{16},,,,,,,,
{16}1p4[8:3]/4,,,,,,,,
{16}8q5[8:3],,,,,,,,
{16}4>1[8:3],,,,,,,,
{16}8<6[8:1],,,,,,,,
{16}8/6>4[16:2],,,,,,,,
{16}1/7<5[16:2],,,,,,,,
{16}2/8<6[16:2],,,,,,,,
{16}3/1<7[16:2],,,,,,,,
{16}1h[16:2]/8<6[16:2],,,1,,,,,
{16}8h[16:2]/7<5[16:2],,,8,,,,,
{16}7h[16:2]/6>4[16:2],,,7,,,,,
{16}6h[16:2]/5>3[16:2],,,7,,,1,,
{64},2b<3[64:226],,,{16},,,
,,,,
,,,,
,,,,
{1}7h[64:32],4h[64:32],1h[64:32],
{16}5h[16:2],,4,5h[16:2],,6,5pp7[16:3],,
{16}4,,3,,2,,1,,
{16}6h[16:2],,5,6h[16:2],,7,6pp8[16:3],,
{16}4,4h[16:2],,,3,,2,8h[16:2],
{16},1,8h[16:4],,6,,4,4>2[16:2],
{16},7,7,,6,,5,5<7[16:2],
{16},1,1,,2,,3,7,
{16}4,5h[16:3],,,2h[16:2],,6,5,
{16}4h[16:2],,3,4h[16:2],,5,4qq3[16:3],,
{16}5,,6,,7,,
8,,
{16}3h[16:2],,4,3h[16:2],,2,3qq2[16:3],,
{16}5,5h[16:2],,,6,,7,2h[16:2],
{16},4,2h[16:2],,1,,2,4-7[8:1],
{16},,1,,3,,4,4>1[8:1]*>2[12:1],
{16},,8,,6,,5,5h[16:2],
{16},1,7h[16:2],{32}2,3,4,,7,,5,,6,,
{16}3h[16:4]/4b,,5,,4h[16:4],,2,,
{16}3h[16:4],,2,,1h[16:4],,4,,
{16}3,5,4,6,4h[16:2],,3,4,
{16}5>2[16:2],,8,,7,,6,,
{16}6h[16:4]/5b,,4,,5h[16:4],,7,,
{16}6h[16:4],,7,,8h[16:4],,5,,
{16}7,5,6,4,5h[16:2],,6,5,
{16}4>1[16:2],,7,,6,,5,,
{16}4pp4[16:3]/3,,1,,2,,3-8[16:2],,
{16}2,,7-2[16:2],,6,,,,
{16}4-1[16:2],,3,,8,,7-4[16:2],,
{16},2,2,,1s5[16:7],,8,,
{16}81,,,7,,,6,,
{16},45,,4h[16:1],5h[16:1],3h[16:1],6h[16:1],4h[16:1],
{16}5h[16:1],4h[16:1],3h[16:1],2h[16:1],4b,3b,2b,1b,
{2}4>1[8:3],
{64},
{64}7<5[8:3],,,,,,,,,,,,,,,,,,,,,,,,,,,,,,,
{2}2<1[16:2],
{16}1bp6[16:4]/6,,7,7,6>1[16:3],,8,8,
{16},7,6pp5[16:3],,5,,3,3,
{16}2bp7[16:4],,8,8,7<2[16:3],,1,1,
{16},8,7pp6[32:6],,6,,2,2,
{16}3b,,3,5,4>1[16:1],6,3,5,
{16}4b,,7,1,6>3[16:1],8,7,1,
{16}6b,,1,8p7[16:3]/7<8[16:3],,43,,87,
{16},,,,8b/7b,,12,,
{16}8bq3[16:4]/3,,2,2,3<8[16:3],,1,1,
{16},2,3qq4[16:3],,4,,6,6,
{16}7bq2[16:4],,1,1,2>7[16:3],,8,8,
{16},1,2,3,,1/8<4[16:2],2/7,3/6,
{16},3,2,1,,1>5[16:2]/5,2/6,3/7,
{16},6,7,8,,14,38,27,
{16}16,,25,4p3[16:3]/3>4[16:3],,87,,43,
{16},,,,4-7[16:1],3b,,,
{16}1bpp8[16:3]/4,,8,8<1[16:4],7,,5,5,
{16},8,7pp8[32:6],,6,,4,4,
{16}5bpp4[16:3],,4,4>5[16:4],3,,1,1,
{16},4,3pp4[32:6],,2,,1,,
{16}8b,1,2,3h[16:2],,1,8,7,
{16}6bpp5[16:3],,5,5,,4,3,2,
{16}1v4[16:1],,3/7,,5/1,,6v3[16:1],3v6[16:1],
{16},,,{16},{24}2,3,45,6,7,8,
{16}1b<3[16:3],,,5>7[16:3],,,1<3[16:3],,
{16},5,,,1,,8,,
{16}7b<1[16:3],,,3>5[16:3],,,7,,
{16},3,,,{24}4,3,21,8,7,6,
{16}5b>7[16:3],,,1<3[16:3],,,5>7[16:3],,
{16},1,,,5,,4,,
{16}3h[512:1],4h[512:1],6h[512:1],8h[512:1],2h[512:1],3h[512:1],5h[512:1],7-3[16:5],
{16},,,,,,,,
{16}1b<1[64:228],,,,,,,,
{16},,,,,,,,
{16},,,,,,,,
{16},,,,,,,,
{16}8<5[64:100],,,,,,,,
{16},,,,,,,,
{16},,,,,,,,
{16},,,,,,,,
{16}1b<1[64:240]/5b>1[64:112],,,,,,,,
{16},,,,,,,,
{16},,,,,,,,
{16},,,,,,,,
{16},,,,,,,,
{16},,,,,,,,
{16},,,,,,,,
{16},,,,,,,,
{2}7b<4[8:3],
{64},
{64}3>1[8:3],,,,,,,,,,,,,,,,,,,,,,,,,,,,,,,,
{64}8<7[8:1],,,,,,,,,,,,,,,,,,,,,,,,,,,,,,,
{2}5>6[8:8],
&inote_6=
