&title=きゅーぴっど。
&artist=天音かなた
&first=0
&des=Jinsokyo2
&lv_5=13+
&inote_5=(160)
{2},,6h[1:2],{8}E5,,E3,E2,{2},,2h[4:7],{8}A5,,B6,B7,{4},,8-4[8:1],8x,3xh[2:1],4,
{8}5,5,6/4,B3,B6,B2,B7,,8/4,,7x/3x,E7,E1,E5,E3,,7/4,,6x/3x,E3/B2,E7/B6,E5/B4,E1/B8,,
5x-8[8:1]/4x-1[8:1],,,,7b/2b,,3,3,4/2,{16},5/3,{8},6/4,6h[4:1]/4,,3>7[4:1],,7>3[4:1],
,4,,6h[4:1],,5,5,7/4,{16},6/3,{8},5/2,5-8[8:1]/2h[4:1],,5x,,{16}1x,8x,1x,8x,{8}1x,
7x/2x,7/2,,6,6,7/5,{16},6/4,{8},5/3,5h[2:1]/3,,1pp4[8:3],,,5,6,7,8h[4:1],,,
7h[4:1]/1h[4:1],,,6h[4:1]/2h[4:1],,,5pp4[2:1]/3qq4[2:1],{4},,,6x<1[4:1],1>4[4:1],
4<7[4:1],7>2[4:1],2>8[2:1]b,,{8}1,2,3,4,5-1[8:1],,7/5,,8-4[8:1],2,8,,6/3,{16}4,5,
{8}4,6/3,{4}7-4[8:1]/2-5[8:1],7x/2x,3x>8[4:1],8<5[4:1],5>2[4:1],2<7[4:1],7<1[2:1]b,,
{8}8,7,6,5,4-8[8:1],,1,1-5[8:1],,7,{4}7w3[4:3],,,,,B2/B4/B6/B8/Cf,1h[16:1],7h[16:1],
3h[16:1],{16}5,6,7,8,1,2,3,4,5x-1[16:1],5x,,5x,,,,,7,8,6,1,7,8,6,1-6[8:1]*-4[8:1],7x,
,,1x,,,,,3,4,2,5,1,6,8,7,1xh[8:1],,,8xh[8:1]/2xh[8:1],,,7bx/3bx,,{4},5/4>8[8:3],5,5,
7/5,6/5,5/4,5/3,{8}2,2,7,7,{16}1,8,1,8,1V75v8<5[1:1]b*V35v2>5[1:1]b,8,1,8,{4}1x,,,,,
5/4,6/3,7/2,8b/1b-5[8:1],6V47[4:1]/1,{8}6/4,3-8[8:1]*-1[8:1],,3-6[8:1]*-5[8:1],,
3>5[4:1],,4,4-8[8:1],,4,,7<4[8:1]/1,,7/3qq4[16:5],,5/3,5<8[8:1],,5>2[8:1],,5,,8/1,
7/2,6/3,,2<8[8:1],8<6[8:1],2,4pp4[4:1]*qq4[4:1],,,,,7>1[8:1],1>3[8:1],7,
5qq5[4:1]*pp5[4:1],,,,,2<8[8:1],8<6[8:1],2,4pp4[4:1]*qq4[4:1],,,,,6,7/8,1,4/2,5,6/3,
5/4,7/2,,1b/8b-4[8:1],,3V52[4:1]/8,,3/5,6-1[8:1]*-8[8:1],,6-3[8:1]*-4[8:1],,6<4[4:1],
,5,5-1[8:1],,5,,8-5[8:1]/2,,8/1pp1[4:1],,6,6<1[8:1],,6>3[8:1],,6,,1/2,8/3,7/4,,
6<1[8:1],4-8[8:1],6,4pp4[4:1]*qq4[4:1],,,,,7>2[8:1],5-1[8:1],7,5pp5[4:1]*qq5[4:1],,,,
,2<7[8:1],4-8[8:1],2,4qq4[4:1]*pp4[4:1],,,,,6x-2[8:1]/8xq4[8:1],,6/8,,5x/3x,{16}4,5,
6,7,8-4[8:1]b,1,2,3,8bp2p4p6p8[8:13]/4bx,Cf,{2},,,{8},,,4/3,2,6/5,7,4/3,1,6/5,8,
2-6[8:1],2,7-3[8:1],7,5<8[8:1]*>2[8:1],,5x,,6/1,2,8/3,7,6/2,3,7/4,6,5/1-6[8:1],1,
4v7[8:1],4,8-5[8:1]*-3[8:1],,8x,,6/4,2,5/3,7,6/4,8/1,5/3,8/1,{16}2,1,2,1,3,8,3,8,4,7,
4,7,5-1[8:1],6,5,6,{32}5b<4[8:7],B5,Cf,B1,{8},,,,,,,{32}A7,D7,A6,D6,{8}A5,,4xh[4:1],,
5,6,,7<4[4:1],,4v7[4:1],,B1/B2,,,1>4[4:1],,4qq1[2:1],,B6/B7,,,,,8<4[4:1],,4q1[4:1],,
B2/B3,,,2>6[4:1],,6qq1[2:1],,A7/B7,,,,7,7,2,2,6,6,1,1,5-8[8:1],,5>7[8:3]/4,,6/5,,,,6,
6,2,2,7,7,3,3,8-5[8:1],,8/2<3[2:1],,4/2,,,,,7V51[4:1],,1<4[4:1],,B3/E3,,,1q6[4:1],,
6<4[2:1],,B7/B8,,,,,5V74[4:1],,4V61[4:1],,B2/B3,,,3pp4[4:1],,4>6[2:1],,D1/E1,,,,5,5,
1,1,6,6,2,2,7-3[8:1],,7/4<8[4:1],,8>4[4:1]/4,,,,6,6,5,5,8,8-4[8:1],,4,3>7[4:1],,
7s3[2:1],{4},,,Ch[2:7],,E2,E3,E4,,{16}5x,,,4x,,,3x,,2x,,,1x,,,8xq5[4:3],,{2},,
4<7[8:1]*>1[8:1],8h[2:1],{12}1,7,1,8,2,8,{2}3h[2:1],{16}5h[16:3],,,6h[16:3],,,7,,
4h[16:3],,,3h[16:3],,,2,,{2}8qq5[1:1]/1pp4[1:1],,,{4}B2/B3/B6/B7/Cf/E3/E7,2h[16:1],
6h[16:1],4h[16:1],{16}6,5,7,,3,4,2,4,3-7[16:1],,,5/3x,,,,,6,5,7,4,8-4[8:1],3,1,
2>5[8:1],8x,,,2x,,,,,8,7,6,5,3,2,1,8,7xh[8:1]/6xh[8:1],,,8xh[8:1]/5xh[8:1],,,
1bx/4bx,,{4},5-8[8:1]/2,2,1-6[8:1]/2,2,5-8[8:1]/2,1-4[8:1],7,{8}6/4,5/3,7/4,5/2,
{16}1,8,2,7,1s5<1[1:1]b*z5>1[1:1]b,8,2,7,{1}1x,{4},5/4,6/3,7/2,8b<5[8:1]/1b>4[8:1],
8/1,{16}E2,E8,E4,E6,{8},7b-4[8:1]/2b-5[8:1],,7/2,,6/3,8h[4:1]/1,,{32}1,2,3,4,5,6,7,
8,{8}5b/1b-5[8:1],,6V84[4:1]/1,,6/4,3<6[8:1]*>8[8:1],,3-7[8:1],,4V61[4:1]/3,,
1-5[8:1],2,3,,2>5[8:1],7qq7[4:1],2,7>5[4:1],,,,,3>8[8:1],6pp6[4:1],3,6>8[4:1],,,,,
2>5[8:1],7qq7[4:1],2,7>5[4:1],,,,,2,8-4[8:1]/1,7,6/8,5,4x/3,8/1,6/5,,8b/2b-5[8:1],,
7V51[4:1]/2,,7/4,4<7[8:1]*>1[8:1],,4-8[8:1],,6>3[8:1]/4,,6,1-5[8:1]*-3[8:1],,1,,
8<5[8:1]/4>1[8:1],,8/4pp4[4:1],,2,2<8[8:1],,5<8[8:1]/2>5[8:1],,5V38[4:1]/2,,
8x-4[8:1],7,6,,5>3[8:1],6qq6[4:1]/3>1[8:1],5,6pp6[4:1],,,,,4<6[8:1],
3pp3[4:1]/6<8[8:1],4,3qq3[4:1],,,,,5>3[8:1],6qq6[4:1]/3>1[8:1],5,6pp6[4:1],,,,,
5q1[8:1]/3-7[8:1],,5/3,,8x/2x,{16}3,4,5,6,7-3[8:1]b,8,1,2,7b/3bx,Cf,{8},,,5/4,6,5/4,
3,4-8[8:1],4,2>5[8:1],2,7-4[8:1]*-2[8:1],,7x,,5/3,4,7/5,6,5/2,3,6/4,5<8[8:1]*>2[8:1],
,5,,1V37[4:1],8,7>4[4:1],6,5,,,6/5,7,6/5,4,5/3,2,1<6[8:1],1,4q8[8:1],4,
1qq7[8:1]*pp3[8:1],,1x,,5/4,2,5/4,7,5/4,1,5/4,8<5[8:1]*>3[8:1],,8,,6x/2x,{16}5/1,6/2,
7/3,8/4,{4}1-6[8:1]/5v2[8:1],5b/1b>4[8:1],7p3[8:1]/1,7/5v8[8:1]*v2[8:1],5-1[8:1],
5/4-2[8:1],8-5-8[8:3]b/4v1v4[8:3]b,8/4,,7<4[8:1]/3>8[8:1],7/3-7[8:1],
1v6[8:1]*v4[8:1]/3,1V35[8:1],8-5[8:1]/1,8/2V48-6[8:3]b,7/2,,5v8[8:1]/1v4[8:1],
1<6[8:1]/5>2[8:1],5v8[8:1]/1v4[8:1],1-6[8:1]/5-2[8:1],5/1-5[8:1],
8-5>4[4:1]b/1-4<5[4:1]b,8/1,{8},4-8[8:1]/3-1[8:1],4/3,,,6-8[8:1]/5-1[8:1],6/5,,,
7q5[4:1]/2p4[4:1],7/2,,,,{16}6/3,2,1,8,7pp8-5[1:1]b,6,5,4,A7/3b,
E
