&title=レーテー
&artist=Aira/IA/雨衣
&first=0.059
&des=我是巡音流歌
&lv_5=13+
&inote_5=(155)
{16},,,,
,,,,
,,,,
,,,,
{16}3h[16:3]/4h[16:3],,,,
,,,,
E2/4h[4:1],,,,
,,,,
{16}4h[16:3]/3h[8:1],,,,
,,E2,,
,,,,
,,,,
{16}4h[16:3]/5h[8:1],,,,
,,,,
5h[4:1]/6h[8:1],,,,
,,,,
{16}E7,,,,
C,,,,
E3,,,,
,,,,
{16}6h[16:3]/5h[16:3],,,,
,,,,
5h[8:1]/E8,,,,
4h[8:1],,,,
{16}3xh[2:1]/E5,,,,
C,,,,
E1,,,,
,,,,
{16}7h[16:3]/5h[8:1],,,,
,,4h[4:5],,
Ch[16:1],,Ch[16:1],,
Ch[16:1],,Ch[16:1],,
{16}Ch[16:1],,Ch[16:1],,
Ch[16:1],,Ch[16:1],,
Ch[16:1],,Ch[16:1],,
1bx/8bx,,,,
{16}2x/6x-4[32:3],,,,
3,,2,2,
5-8[8:1],4,4,,
3x,,,,
{16}7x-4[8:1]/3x,,26,,
1,,8,8,
5-1[8:1],1,1,,
4x,,,,
{16}3x-5[32:3]/7x,,,,
6,,7,7,
4-1[8:1],5,5,,
6x,,7,,
{16}8h[16:1],,8h[16:1],,
7h[16:1]/5h[16:1],,6h[16:1]/5h[16:1],,
3h[16:1]/4h[16:1],,1bh[4:1]/Cf,,
,,4,2xh[8:1],
{16},5,3,6,
4,7,5,8xh[8:1],
,5,6,5,
7,7xh[8:1],,3,
{16}3,4,2,4,
3,5,2,2xh[16:3],
,,1,,
8bV64[16:3]/3h[8:1],,,,
{16}2,,1bV73[16:3],,
,,4,,
6,,8,,
{24}1xh[12:1]/5xh[12:1],,,,4xh[12:1]/7xh[12:1],,
{24},,3xh[12:1]/5xh[12:1],,,,
{16}2b/4x-8[8:1],,,,
,,,,
4x-8V25[4:3],,,,
{16},,,,
{32}A7,B7,,,,,,,
{16},,,,
8x-4V61[4:3],,,,
{16},,,,
{32}A3,B3,,,,,,,
{16},,,,
8x-4V61[4:3],,,,
{16},,,,
{32}A7,B7,,,,,,,
{16},,,,
4x-8V63[8:5],,,,
{16},,,,
{32}A2,B2,,,,,,,
{16},,1,,
1xh[16:3],,,3h[16:3],
{16},,2,,
7xh[16:3],,,5h[16:3],
,,6,,
4-2[8:1],,,,
{16}6-4[8:1],,,,
7h[8:3],,,,
,,4,5,
6x/Ch[2:3],,,,
{32},,,,E1,E8,E7,,
{16},,,,
{32},,,,,,,E1,
E2,E3,,,,,,,
{16},,,,
,,,,
,,,,
1b-6-4[16:3]/5b,,,,
{16}16,,7,,
8x-4[8:1],,,,
3,,3,2,
1x-6-4[16:3]/5x,,,,
{16}16,,7,,
8x-4[8:1],,,,
3,,2,,
1-6[8:1],,6-4[32:3],,
{16}1,,7,,
8xV62[4:1],,,,
1,,3,,
5b-1[8:1],,,,
{16}7b>6[4:1]/5,,,,
3bh[4:1],,,,
,,2,,
1/6x-4[32:3],,7,,
{16}1-6[8:1]/6,,2,,
1b/5h[4:1],,,,
8x-4[8:1],,1,,
8/6x-8[8:1],,5,,
{16}6-4[8:1]/2-6[8:1],,,,
2b/6b,,,,
1b,,3x,4x,
1x,,1x,,
{16}24,,3h[8:1]/5,,
6x,,6x,,
47,,47,,
2b/6b,,1,4,
{16}3h[8:1],,6,5,
8h[8:1],,1,,
26,,6,7,
8bx-3-5[16:3]/4bx,,,,
{16}38,,2,,
1x-5[8:1],,,,
6/1,,6,7,
8x-3-5[16:3]/4x,,,,
{16}3/8,,2,,
1x-5[8:1],,,,
16,,7,,
8x-3[8:1],,3-5[32:3],,
{16}8,,2,,
1xV73[16:3],,,,
14,,6,,
8bx<5[8:1],,,,
{16}4bv7[8:1]/8-3[8:1],,,,
4b/8b,,,,
2x/6x,,1,,
7x-4b[8:1],,7,,
{16}1-6b[8:1],,1,,
8xh[4:1],,,,
5,,4,,
3x-8[8:1],,3,,
{16}5-2[8:1],,5,,
1xh[4:1],,,,
4x,,4,5,
2bx/6bx,,2x/6x,,
{16}15,,15,,
24,,35,,
46,,57,,
4x,6,3,5,
{16}2x,4,1,8,
2b-6[8:1],,,,
5p4[2:1],,,,
,,,,
{16},,,,
,,,,
C,,,,
1bx/8bx,,,,
{16}3x-1[32:3]/7x,,,,
6,,5,5,
8x-4[8:1],6,1xh[8:1],,
,,2,,
{16}3x-6[8:1]/7x,,48,,
1,,8,8,
5x-1[8:1],7,4xh[8:1],,
,,,,
{16}6x-3[8:1]/2x,,51,,
8,,1,1,
4x-8[8:1],2,5xh[8:1],,
,,6,,
{16}7h[16:1],,7h[16:1],,
8bh[16:1]/2h[16:1],,6bh[16:1]/5h[16:1],,
4bh[16:1]/3h[16:1],,Cf/8bV64[4:1],,
,,3,,
{16}2,,1xV75[4:1],,
,,4,,
3,,2xV86[4:1],,
,,5,,
{16}4,,3,,
2xh[8:1],,C,,
4xh[8:1],,E8,,
{24}E4,B4,B5,E6,,,
{16}1bx/7bx-3-5[4:1],,,,
3,,2,,
1V73[4:1],,,,
6h[8:1],,,,
{16}6,,5,,
4<8[4:1],,,,
8-2V46[8:5],,,,
3xh[4:1],,,,
{16},,,,
E2,,,,
3,,3,,
4-2[8:1],,,,
{16}6-4[8:1],,,,
E2,,,,
3-5[8:1],,,,
5,,,,
{16}6xh[4:1],,,,
E7,,E8,,
E1/5x,,E2,,
E3/4x-7[8:1],,,,
{16}2-5[8:1],,,,
E8,,,,
6-8[8:1]/4,,,,
5h[4:1],,,,
{16}1-5[8:1],,1,,
2h[4:1],,,,
6V82[2:1],,,,
A3,,,,
{16}A4,,,,
A5,,,,
,,1x,8x,
7xh[1:2]/C,,,,
{16},,,,
,,,,
,,,,
4xh[4:1],,,,
{16},,,,
3bh[2:1],,,,
,,,,
{32},2bx/6xh[384:1],1bx/5xh[384:1],8bx-4b[12:1]/4xh[384:1],,,,,
{16},,,,
{32}3x/7bx,6x,5x,4x,,,1bx/5x,2x,
3x,4x,,,3x/7x,,,,
{16}8x,4,7,5,
{16}6x,5,7x,7,
4x,3,2,1,
5x/8x,7,6,5,
4x/8x,37,26,15,
{16}4bx/8bx-4b[12:1],,,,
8/6b-1[16:1],,,5b-2b[16:1]/6,
,,7b-3[16:1]/5,,
,7/1bw5b[12:1],,,
{16}1bx,,,,
3xh[16:3]/7xh[16:3],,,,
,,C,,
,,6h[8:1]/1b,,
{16},6h[8:1]/5b,,,
6h[8:1]/3b,,,6h[8:1]/7b,
,,1h[8:1]/5h[8:1],,
,3h[8:1]/4h[8:1],,,
{16}7h[8:1]/3h[8:1],,,6h[8:1]/5h[8:1],
,,8h[8:1]/4h[8:1],,
,3h[8:1]/6h[8:1],,,
1b>4>6[8:5]/E6hf[2:1]/A5h[2:1]/E5hf[16:11]/B5h[16:11],,,,
{16},,,,
,,,,
,,,,
4bx>1>7[4:3]/8bxh[4:3],,,,
{16},,,,
,,,,
,,,,
{32}B8,C,B4,,,,,,
{16},,,,
,,,,
,,,,
{32}B1,C,B5,,,,,,
{16},,,,
,,,,
,,,,
{32}E7,E6,E5,,,,,,
{16},,,,
{32}E3,E4,E5,,,,,,
{16},,,,
Ch[2:1],,,,
{16},,,,
E1,,,,
,,,,
{32}6h[2:1]/B5,A5,,,,,,,
{16},,,,
,,,,
,,,,
{32}3h[2:1]/B4,A4,,,,,,,
{16},,,,
5,,,,
6xh[4:7],,,,
E6,,,,
{16},,,,
E5,,,,
,,,,
E4,,,,
{16},,,,
,,,,
,,,,
5b/1b-6-4b[16:3],,2,,
{16}1xV73[16:3]/6,,7,,
1x,,,,
2h[8:1],,6,5,
8b-3-5b[16:3],,7,,
{16}3/8V26[16:3],,2,,
8x,,,,
7h[8:1],,8,,
1b-6-4b[16:3]/5b,,2,,
{16}1xV73[16:3]/6,,7x,,
1bx-6-4b[16:3],,,,
1xV73[16:3],,7x,,
1b>4b[8:1],,,,
{16}1b-5[8:1]*-6[8:1],,,,
1b/Cf,,,,
2bx/8bx,,7x,,
5x-1[8:1]/6x,,4,,
{16}5/7-3-5b[16:3],,8,,
7b,,,,
2-6[8:1],,1,,
5<8[8:1]/2b,,4,,
{16}1v6b[8:1]*q5[8:1]/5b,,,,
1b,,,,
37,,6,5,
8b,,8,,
{16}4x/7x,,3/5h[8:1],,
2b,,2,,
1x/4x,,2x/6h[8:1],,
3x,5,4,7,
{16}5x,6,4,5,
2x,4,3,5,
1b,,1x,2x,
3bx/8b-3-5b[16:3],,7,,
{16}8xV62[16:3]/3,,1x,,
8x,,,,
4xh[8:1],,3,4,
1b-6-4b[16:3],,2,,
{16}1xV37[16:3]/6,,8x,,
1x,,,,
5xh[8:1],,6,,
8b-3-5b[16:3]/3b,,7x,,
{16}8xV62[16:3],,1x,,
8bx-3-5b[16:3],,,,
8xV62[16:3],,1x,,
8bx<5b[8:1],,,,
{16}8bv3[8:1]*q4[8:1],,,,
8b/Cf,,,,
1b/7b,,2,,
3x/8x-6[8:1],,5>2[8:1],,
{16}8-3-5b[16:3],,5,,
8b,,,,
2,,1,,
6<8[8:1],,1>4[8:1],,
{16}6V48b[16:3],,1,,
6b,,,,
1h[8:1],,7,8,
6b,,6,,
{16}3V58[16:3]/5,,24,,
1xh[8:1],,,,
2,,2,4,
3,,3,,
{16}4/6V41b[16:3],,57,,
8b-3[8:1],,,,
8b<2b[2:1],,,,
5bh[4:3],,,,
{16},,,,
,,,,
1b,,6,5,
7,,46,,
{16}35,,24,,
2xh[16:1]/5b,,6b/3xh[16:1],,
7b-3b[8:1]/4xh[16:1],,8b<2>1[16:37]/5xh[16:1],,
C,,,,
{64},,,,,,,,,1,,,,,,,
,1,,,,,,,,,,,,,,,
,,,,,,,5,,,,,,,,,
,,,,,,,5h[16:21],,,,,,,,,
{16},,,,
,,,,
,,,,
,,,,
{64},,,,,,,,,,,,,
E
