&title=どこにもいかない
&artist=箱部 なる(CV:M・A・O)
&first=-0.05
&des=Illusionika
&lv_5=13
&inote_1=(146)
{16},,,3h[8:1]/6h[8:1],,,,,,6-8[8:1],,,,,,,
{16},3-5[8:1],,6,,3,,,,7-2[8:1],,7,,3-6[8:1],,3,
{16},8-5[8:1],,8,,1,,,,2-4[8:1],,6,,2,,,
{16},5-7[8:1],,3,,5,,,,1-4[8:1],,1,,8-5[8:1],,8,
{16},3,,3,,3h[8:1],,,,6,5,6,,3,4,3,
{16},6,5,6,,3,4,3,,7,5,6,,2,4,3,
{16},4/5,,3/6,,2/7,,,,7,8,7,,2,1,2,
{16},8,6,7,,1,3,2,,7,5,6,,2,4,3h[8:2],
{16},,,,,,,6/5,,,,,,,,4/3,
{16},,,,,1,,8,,7h[8:7],,,,2,,,
{16},2,,,,2,,,,2,,,,2,,1,
{16},1,,8,,8,,,,7/3,,,,7/3,,,
{16},7/3,,,,7/2,,,,7/2,,,,7/2,,6,
{16},6,,3,,3,,,,5,,,,5/2,,,
{16},5/3,,,,5/4,,,,5/6,,,,5/7,,8,
{16},8-4[8:1],,3,,8,,,,3,,,,3,,,
{16},1,,7,,2,,8,,1/8,,1/8,,1/8,,7,
{16},6p4[16:3],,2,,3,,,,2>4[8:1],,1,,8,,7<5[8:1],
{16},8,,1,,2,,3v1[8:1],,4,,5,,6v8[8:1],,5,
{16},4,,3>1[8:1],,4,,5,,6<8[8:1],,5,,4,,3,
{16},2,,2,,1,,1,,8,,8,,7,,2,
{16}4,3,6,8,7,1,,,,8<5[8:1],,1,,2,,3>8[8:1],
{16},4,,5,,6>3[8:1],,7,,8,,1<6[8:1],,2,,3,
{16},,,3p7[8:1],,4,,5,,6q2[8:1],,5,,4,,3,
{16},2,,1,,3,,3,,4/5,,4/5,,,,3/6,
{16},3/6,,,,1b/8b,,,,5p4[8:12]/4>5[8:12],,,,,,,
{1},{16},,,,,,,,,4q5[8:11]/5<4[8:11],,,,,,,
{1},{16},,,,,3/6,,4,5,4,5,4,5,4,5,4,5,4,5,4,5,4,5,4,5,3,6,3,6,3,6,3,6,3,6,3,6,3,6,3,6,2,7,2,7,2,7,2,7,2,7,2,7,2,7,1,8,1,8,1,8,1,8,1,
{16}8,1h[8:2],,,,7b,,,,,,2-6[8:1],,6-2[8:1],,2<6[8:2],
{16},,,,,5>3[8:1],,5,,,,7-3[8:1],,3-7[8:1],,7>3[8:2],
{16},,,,,4<6[8:1],,4,,,,,,6,,5,
{16},7h[8:6],,3,,3,,2,,2,,1,,1,,8-4[8:1],
{16},,,2-6[8:1],,2,,1,,1,,2>5[8:1],,5>2[8:1],,2<6[8:2],
{16},,,,,5>2[8:1],,5,,,,7<4[8:1],,4<7[8:1],,7>3[8:2],
{16},,,,,4<7[8:1],,4,,,,,,,,2,
{16},6,,2-4[8:1],,6,,2-8[8:1],,6,,2-6[8:1],,6-2[8:1],,2,
{16},8w4[8:1],,,,8b,,,,,,6-2[8:1],,2-6[8:1],,6>2[8:2],
{16},,,,,1<7[8:1],,1,,,,3-7[8:1],,7-3[8:1],,3<7[8:2],
{16},,,,,8>2[8:1],,8,,,,,,7-5[8:1],,3,
{16},7-1[8:1],,3,,7-3[8:1],,3-7[8:1],,7,,,,2,,2,
{16},1,,1w5[8:1],,,,1b,,,,2v5[8:1],,5,,2,
{16},,,3,4,3,4,3,,,,7v4[8:1],,4,,7,
{16},,,6,5,6,5,6<4[8:3],,,,,,,,,
{16},,,7h[8:3],,2,,2,,8b-4[8:1],,,,2-6[8:1],,2,
{16},1b-5[8:1],,,,8bw4[8:1],,,,8b,,,,1<7[8:1],,5,
{16},1>3[8:1],,5,,1,,,,8,,,,8>2[8:1],,4,
{16},8<6[8:1],,4,,8>2[8:1],,4,,8,,,,1<7[8:1],,5,
{16},1>3[8:1],,5,,1/5b-1[8:1],,,,4-8[8:1],,4,,6-2[8:1],,6,
{16},3b-7[8:1],,,,5w1[8:1]/3b,,,,5b,,,,8>2[8:1],,4,
{16},8<6[8:1],,4,,8,,,,1,,,,1<7[8:1],,5,
{16},1>3[8:1],,5,,1,,,,7,6,5h[8:1],,,,3,
{16}2,1h[8:1],,,,,,3/4,,3/4q5[8:12]*>5[8:12],,,,4b,,,
{1},
{16},,,,,,,,,,,4/5,,4h[8:4]/5h[8:4],,,
{16},,,,,,,,,5,6,5,,3,,,
{16},3h[8:4],,,,,,,,,,,,2,7,
{16}1,8,1,8,1,8,1,8,1,8,2,7,,3,,6,,
{16}5,,4,,5,,,3,6,3,6,,,7,,,2h[8:11],
{1},
{16}8,7,6,,,,,,5,,2,,5,,2,,,5,,
(130)1h[8:2],,,,2h[8:2],,,,3h[8:2],,,,4h[8:2],,,,
{16}5h[8:2],,,,6h[8:2],,,,7h[8:4],,,,8h[8:2],,,,
{16},,,,1,,,,2,,,,3h[8:2],,,,
{16},,,,4,,,,5,,6,,5,,,,
{16}6,,3,4,3,,6,5,6-2[8:1],,,,3/6,,,,1,,7,8,7,,2,1,2-6[8:1],,,,2/7,,,,
{16}1,8,1,8,1,8,1,8,2,7,2,7,2,7,2,7,
{16}3,6,3,6,3,6,3,,4/5,,4-8[8:1]/5-1[8:1],,3/6,,4/5,,
{16},,1-6[8:1],,6-2[8:1],,1<4[16:3],,,,,,1>4[8:1],,1,,
{16},,8-3[8:1],,3-7[8:1],,8>5[16:3],,,,,,8<5[8:1],,8,,
{16},,,,2,,2-5[8:1],,5-1[8:1],,,,7-3[8:1],,,,2-6[8:1],,,,2,,8-4[8:1],,,,1,,2,,3,,
{16},,8q4[8:1],,4q8[8:1],,8>4[8:2],,,,,,8<4[8:1],,8,,
{16},,1p5[8:1],,5p1[8:1],,1<5[8:2],,,,,,1>5[8:1],,1,,
{16},,,,6,,6h[8:6],,2,,2,,1,,1,,8-4[8:1],,8,,7-3[8:1],,7,,2-6[8:1],,2,,5b,,,,
{16},,2v5[8:1],,5>2[8:1],,2<6[8:2],,,,,,2>6[8:1],,2,,
{16},,7v4[8:1],,4<7[8:1],,7>3[8:2],,,,,,7<3[8:1],,7,,
{16},,2h[8:1],,8-4[8:1],,8,,1-5[8:1],,1,,7-3[8:1],,7,,4-8[8:1],,,,5,,6,,,,7,,,,8,,
{16},,3v8[8:1],,8>3[8:1],,3<7[8:2],,,,,,3>8[8:1],,3,,
{16},,6v1[8:1],,1<6[8:1],,6>2[8:2],,,,,,6<2[8:1],,6,,
{16},,3,,2/1,,2/1,,,,5,,2-6[8:1],,5,,
{16}2b/7-1[8:1],,,,7b/3-5[8:1],,,,3b[8:1]/6-2[8:1],,,,8w4[8:1]/6b,,,,
{16}8b,,,,1<7[8:1]/5,,5,,6/1>3[8:1],,6,,5/1x,,,,
{16}8,,,,8>2[8:1]/4,,4,,3/8<6[8:1],,3,,4/8>2[8:1],,4,,
{16}3/8,,,,1>4[8:1]/5,,5,,6/1<6[8:1],,6,,5/1,,,,
{16}8,,,,3/8<5[8:1],,3,,4/8>3[8:1],,4,,3/8<5[8:1],,,,
{16}4/8b,,,,1>4[8:1]/5,,5,,6/1<6[8:1],,6,,5/1,,,,
{16}8,,,,8<5[8:1]/4,,4,,3/8>3[8:1],,3,,4h[8:4]/8,,,,
{16},,1,,8,,,,,,7,,6,,5,,4,,4,,3,,3,,2h[8:2],,,,1h[8:2],,,,8bz4[8:12],,
&inote_5=(146)
{16},,,3h[8:1]/6h[8:1],,,,,,6-8[8:1],,,,,,,
{16},3-5[8:1],,6,,3,,,,7-2[8:1],,7,,3-6[8:1],,3,
{16},8-5[8:1],,8,,1,,,,2-4[8:1],,6,,2,,,
{16},5-7[8:1],,3,,5,,,,1-4[8:1],,1,,8-5[8:1],,8,
{16},3,,3,,3h[8:1],,,,6,5,6,,3,4,3,
{16},6,5,6,,3,4,3,,7,5,6,,2,4,3,
{16},4/5,,3/6,,2/7,,,,7,8,7,,2,1,2,
{16},7,5,6,,2,4,3,,6,5,6,,3,4,3h[8:2],
{16},,,,,,,6/5,,,,,,,,4/3,
{16},,,,,1,,8,,7h[8:7],,,,2,,,
{16},2,,,,2,,,,2/6-4[8:1],,,,2,,1,
{16},1,,8,,8,,,,7,,,,7/3-7[8:1],,,
{16},6,,,,6/2-8[8:1],,,,5,,,,5,,4,
{16},4,,3,,3,,,,5,,,,5/2,,,
{16},5/3,,,,5/4-1[8:1],,,,/6,,,,7/8,,1,
{16},8-4[8:1],,3,,8,,,,3,,,,3,,,
{16},1,,7,,2,,8,,1/8,,1/8
,,1/8,,7,
{16},6p4[16:3],,2,,3,,,,1>4[8:1],,6,,7,,8<5[8:1],
{16},8,,2,,3,,4>1[8:1],,4,,7,,6,,5<8[8:1],
{16},5,,3>1[8:1],,4,,5,,6<8[8:1],,5,,4,,3,
{16},2,,2,,1,,1,,8,,8,,7,,2,
{16}4,3,6,8,7,1,,,,8<5[8:1],,1,,2,,3>8[8:1],
{16},4,,5,,6>3[8:1],,7,,8,,1<6[8:1],,2,,3,
{16},,,3p7[8:1],,4,,5,,6q2[8:1],,5,,4,,3,
{16},2,,1,,3,,3,,4/5,,4/5,,,,3/6,
{16},3/6,,,,1b/8b,,,,5p4[8:12]/4>5[8:12],,,,,,,
{1},{16},,,,,,,,,4q5[8:11]/5<4[8:11],,,,,,,
{1},{16},,,,,3/6,,4,5,4,5,4,5,4,5,4,5,4,5,4,5,4,5,4,5,3,6,3,6,3,6,3,6,3,6,3,6,3,6,3,6,2,7,2,7,2,7,2,7,2,7,2,7,2,7,1,8,1,8,1,8,1,8,1,
{16}8,1h[8:2],,,,7b,,,,,,1-5[8:1],,5-1[8:1],,1>7[8:2],
{16},,,,,8,,8,,,,8-4[8:1],,4-8[8:1],,8<2[8:2],
{16},,,,,1,,1,,,,,,6,,5,
{16},7h[8:6],,3,,3,,2,,2,,1,,1,,8-4[8:1],
{16},,,2-6[8:1],,2,,1,,1,,2-5[8:1],,5>2[8:1],,2<6[8:2],
{16},,,,,5,,5,,,,7-4[8:1],,4<7[8:1],,7>3[8:2],
{16},,,,,4,,4,,,,4/3,,4/3,,2,
{16},6,,2-4[8:1],,6,,2-8[8:1],,6,,2-6[8:1],,6-2[8:1],,2,
{16},8w4[8:1],,,,8b,,,,,,7<4[8:1],,4<7[8:1],,7>3[8:2],
{16},,,,,4,,4,,,,2>5[8:1],,5>2[8:1],,2<6[8:2],
{16},,,,,5,,5,,,,,,7-5[8:1],,3,
{16},7-1[8:1],,3,,7-3[8:1],,3-7[8:1],,7,,,,2,,2,
{16},1,,1w5[8:1],,,,1b,,,,2-6[8:1],,6,,2,
{16},,,4,3,4,3,4,,,,7-3[8:1],,3,,7,
{16},,,5,6,5,6,5<4[8:3],,,,,,,,,
{16},,,7h[8:3],,2,,2,,1b-5[8:1],,,,7-3[8:1],,7,
{16},1b-5[8:1],,,,8bw4[8:1],,,,8b,,,,1<7[8:1],,5,
{16},1>3[8:1],,5,,1,,,,8,,,,8>2[8:1],,4,
{16},8<6[8:1],,4,,8>2[8:1],,4,,8,,,,1<7[8:1],,5,
{16},1>3[8:1],,5,,1/5b-1[8:1],,,,4-8[8:1],,4,,6-2[8:1],,6,
{16},3b-7[8:1],,,,5w1[8:1]/3b,,,,5b,,,,8>2[8:1],,4,
{16},8<6[8:1],,4,,8,,,,1,,,,1<7[8:1],,5,
{16},1>3[8:1],,5,,1,,,,7,6,5h[8:1],,,,3,
{16}2,1h[8:1],,,,,,3/4,,3/4q5[8:13]*>5[8:13],,,,4b,,,
{1},
{16},,,,,,,,,,,4/5,,4h[8:8]/5h[8:4],,,
{16},,,,,,,,5,6,7,8h[8:8],,,,4,
{16},,,,,,,,,,,,,,,,3h[8:4],,
{16},,6,,6,,6h[8:4],,,,,,,,
{16},,,2,,3,,4,,5,,6,,,,,2h[8:11],
{1},
{16}8,7,6,,,,,,5,,2,,5,,2,,,5,,
(130)1h[8:2],,,,2h[8:2],,,,3h[8:2],,,,4h[8:2],,,,
{16}5h[8:2],,,,6h[8:2],,,,7h[8:2],,,,8h[8:2],,,,
{16},,,,1,,,,2,,,,3h[8:2],,,,
{16},,,,4,,,,5,,6,,5,,,,
{16}3,,6,5,6,,3,4,3-1[8:1],,,,6/3,,,,8,,2,1,2,,7,8,7-5[8:1],,,,7/2,,,,
{16}1,8,1,8,1,8,1,8,2,7,2,7,2,7,2,7,
{16}3,6,3,6,3,6,3,,4/5,,4-8[8:1]/5-1[8:1],,3/6,,4/5,,
{16},,1q5[8:1],,5q1[8:1],,1>6[16:3],,,,,,7,,8,,
{16},,8p4[8:1],,4p8[8:1],,8<3[16:3],,,,,,2,,1,,
{16},,,,2,,2-5[8:1],,5-1[8:1],,,,7-3[8:1],,,,2-6[8:1],,,,2,,8-4[8:1],,,,1,,2,,3,,
{16},,8<5[8:1],,5<8[8:1],,8qq3[8:3],,,,,,3<6[8:1],,3,,
{16},,1>4[8:1],,4>1[8:1],,1pp6[8:3],,,,,,6>3[8:1],,6,,
{16},,,,6,,6h[8:6],,2,,2,,1,,1,,8-4[8:1],,8,,7-3[8:1],,7,,2-6[8:1],,1,,2,,,,
{16},,2v5[8:1],,5>2[8:1],,2<6[8:2],,,,,,5,,5,,
{16},,7v4[8:1],,4<7[8:1],,7>3[8:2],,,,,,4,,4,,
{16},,2,,8-4[8:1],,8,,1-5[8:1],,1,,7-3[8:1],,7,,4-8[8:1],,,,5,,6,,,,7,,1/8,,2,,
{16},,4-8[8:1],,8<5[8:1],,5-1[8:1],,,,,,6,,6,,
{16},,5-1[8:1],,1>4[8:1],,4-8[8:1],,,,,,3,,3,,
{16},,3,,2/8,,2/8,,2/8V63[8:2],,,,
{16}3>7[8:2],,,,7V14[8:2],,,,4<8[8:2],,,,8-3[8:2],,,,
{16}3s7[8:2],,,,1b,,,,1<7[8:1],,5,,1>3[8:1],,5,,1,,,,
{16}8,,,,8>2[8:1]/4,,4,,3/8<6[8:1],,3,,4/8>2[8:1],,4,,
{16}3/8,,,,1<6[8:1]/5,,5,,4/1>4[8:1],,4,,5/1,,,,
{16}8,,,,3/8>3[8:1],,3,,4/8<5[8:1],,4,,3/8>3[8:1],,,,
{16}4/8b,,,,1<6[8:1]/5,,5,,4/1>4[8:1],,4,,5/1,,,,
{16}8,,,,8>3[8:1]/4,,4,,5/8<5[8:1],,5,,4h[8:4]/8,,,,
{16},,1,,8,,,,,,7,,6,,5,,4,,4,,3,,3,,2h[8:2],,,,1h[8:2],,,,8bz4[8:12],,
