&title=innocent
&artist=kanone sama
&first=-0.2
&des=TORLI
&des_6=TORLI
&lv_6=14+
&inote_6=(210){4},,,,2b-6[8:1],
{8},,,,7/5,5h[8:1]/7h[4:1],
,,4/2,4h[8:1]/2h[4:1],,,{4}8/1,
7b-3[8:1],7b/5b,{8},5h[8:1]/2h[8:1],,4h[8:1]/6h[8:1],
,8,7/1,6/2,{4}5/3-8[8:1],4,
1b/7b-4[8:1]*-3[8:1],{8},,,,5/2,5h[4:1]/2h[8:1],
,,6/4,6h[4:1]/4h[8:1],,,{4}8/2,
7b-4[8:1],7b/1b,{8},3b-8[8:1]*<6[8:1],,3b,
,,7,7,1,6,{4}5/2,
{8}3/4,3,5/3,3,{4}6/3,{8}3/4,3,
3/5,3,3/6,3,{4}7h[8:1]/3h[8:1],2h[8:1]/8h[8:1],
{8}1/4,1,1/5,1,{4}6/1,{8}1/4,1,
1/5,1,1/6,1,{4}2h[8:1]/8h[8:1],3h[8:1]/7h[8:1],
{8}4/6,4,4,4,5/3,6,7,8,
4/8,3,2/6,7,8/1,2,3/7,6,
{16}4,5,4,5,4,5,4,5,4,5,3,6,2,7,1,8,
{2}Cf,{4}8b-4b[8:1],8b,
1b-4[8:1],8b/1b-6[8:1],2b/1b-3[8:1],8b/1b-7[8:1],
2b/1b>4[8:1],8b/1b<6[8:1],2b/1b-5[8:1],1b/5b,
8b-5b[8:1],1b/8b-3b[8:1],7b/8b-6b[8:1],1b/8b-2b[8:1],
7b/8b<5b[8:1],1b/8b>3b[8:1],7b/8b-4b[8:1],8b/4b,
2b-5[8:1],4b/2b-8[8:1],{8}7b/2b-5[8:1],6b,{4}2b-8[8:1],
4b/2b-5[8:1],{8}7b/2b<7[8:1],6b,{4}2b-6[8:1],2b/4b,
7b-3[8:1],3b-7b[8:1],{8}1,1,{4}1bh[4:1],
{8}E7/B6,{16}E3,B3,{8}B4,E1/B8,{16}E7,B6,{8}B5,{4}C,
7bxh[8:1]/1b-5b[8:1],7bxh[8:1]/1b-3b[8:1],{8}7b/1b-5b[8:1],7b,{4}7bxh[8:1]/1b-3b[8:1],
6bxh[8:1]/1b-7b[8:1],{8}6b/1b-3b[8:1],6b,{4}6bxh[8:1]/1b-5b[8:1],6b/1b,
2bxh[8:1]/8b-4b[8:1],2bxh[8:1]/8b-6b[8:1],{8}2b/8b-4b[8:1],2b,2b/8b-6b[8:1],2b,
{4}3bxh[8:1]/8b-2b[8:1],3bxh[8:1]/8b-6b[8:1],{8}3b/8b-4b[8:1],3b,{4}3b/8b,
3-8[8:1],5/3,{8}5-3[8:1],6,{4}7/5<1[16:3],
2,{8}3,4,{4}5/7V13b[8:1]*-4b[8:1],7b,
1V35[4:1],5V31b[4:1],{8}6,7,{4}8bh[4:1],
{16}E5,E4,E3,E2,E1,E8,E7,E6,E5,E4,E3,E2,{4}E1f/D1,
7-3[8:1],7V51[4:1],5b/7b,4,
3V17[4:1],7V52[4:1],4b,8,
2<7[8:1],2V48[4:1],4b/2b,5,
6V41[4:1],1V75[4:1],2b,4,
5<8[8:1],5V37[4:1],3b/5b,2,
1V75[4:1],5>1[4:1],1b,6,
{8}2/5,{16}3,4,{8}3,6/2,{16}7,8,{8}7,6/1,5/2,
{4}3b/4b<7b[8:1],1b-5b[8:1],1bw5b[8:1],{48}1b,Cf,,,,,,,,,,,{4}3-8[8:1]/7-4[8:1],
3b/7bV15[4:1],{8}2,3,{4}4h[4:1],
{8}1-6[8:1],1,5>2[8:1],5,7-4[8:1],8,{4}1b/7b,
6-1[8:1]/2-5[8:1],6b/2bV84[4:1],{8}7,6,{4}5h[4:1],
{8}8>3[8:1],8,4-7[8:1],4,2-6[8:1],1,{4}8b/2b,
7-4[8:1]/3-8[8:1],3b/7bV15[4:1],{8}2,3,{4}4h[4:1],
{8}8-4[8:1],3-8[8:1],8,3,6-1[8:1],5,{4}4b/6b,
{8}5/2,{16}3,4,{8}3,5/1,6<1b[8:1],5,2-5b[8:1],3,
{4}7b-3b[8:1],7b/2b-6b[8:1],2b/4b<7b[8:1],4b/8bw4b[8:1],
{48}8b<1[2:7],Cf,{1},,,{4},,,{16},,,{48},{1}3V51[4:3],
7V15[4:3],
2b-5V38-4b[2:3],
7-4[16:9],
{4}5/2h[2:1],5,5,{8}4b/3b,3bh[4:1]/4bh[8:1],
,,7b/1b,7bh[8:1]/1bh[4:1],,,{4}6b/2b,
5bh[8:1]/3bh[8:1],4bh[8:1]/7bh[8:1],{8}1b,2bh[8:1]/8bh[8:1],,7bh[8:1]/3bh[4:1],
,,{4}6bh[8:1]/5bh[8:1],7bh[8:1]/3bh[8:1],5b/1b,
{8}3,3,6,6,1,1,8,8,
7/1,2,3/5,6,7/1,1,2/6,6,
{16}4x,5x,3x,6x,2x,7x,1x,8x,1,2,3,4,5,6,7,8,
{1}1b/Cf,
{8}6b/2b,{16}7,8,{8}7,3/4,5/2-6[8:1],8-5[8:1],2,8,
1,{16}3,4,{8}2,6/5,3/7-3[8:1],2-5[8:1],7,2,
7,{16}3,4,{8}2,{16}8,1,{8}7-4[8:1],3>8[8:1],7,3,
{16}7,6,5,4,8,1,2,3,{8}4/8,6/5,8/2,4/3,
5/1,{16}7,8,{8}6,{16}3,4,{8}2-6[8:1],5-8[8:1],2,5,
1,{16}7,5,6,4,5,3,8,1,6,2,5<8[8:1],3,4,3,
{8}5b,2b-6[8:1],,2b/4b,{4}5b<4b[4:1],Cf,
{8},1b,8b/2b,7b/3b,5b/4b,6b/1b,4b/3b,8b/2b,
7b/3b,{16}5,4,{8}6,{16}1,8,{8}2-6[8:1],7-4[8:1],2,7,
1,{16}3,4,{8}2,{16}6,5,{8}7>2[8:1],3-5[8:1],7,3,
6,{16}7,8,{8}7,6/1,4/5<8[8:1],2-6[8:1],5,2,
{16}1,8,7,6,1,2,3,4,{8}5/8,7/1,6/2,4/3,
5-8[8:1],2<7[8:1],5,2-5[8:1],4,2-8[8:1],6,2,
4-7[8:1],5,8>3[8:1],1,4,5-2[8:1],6,7,
8b,7b/1b,,5b/1b,{4}4b/3b>5b[4:1],Cf,
{8},8b,1b/7b,2b/6b,4b/5b,3b/8b,5b/6b,1b/7b,
6b/2b-8[8:1],{16}3,4,{8}2,6-4[8:1],{16}7,8,{8}6,1,2,
3-8[8:1],5,3-5[8:1],7,3-8[8:1],6,3,5,
1/7-1[8:1],{16}6,5,{8}7,3<6[8:1],{16}2,1,{8}3,8,7,
6-1[8:1],2-6[8:1],6,2,8-4[8:1],4,8,2,
5/3-8[8:1],{16}2,4,{8}3,7-3[8:1],{16}6,5,{8}7,8,1,
2-5[8:1],7-3[8:1],2,7,1-6[8:1],7,1,5,
4b/8b,6b/2b,,5b/1b,{4}4b/3b>5b[4:1],Cf,
{8},8b,1b/7b,2b/6b,4b/5b,3b/8b,5b/6b,1b/7b,
6b-1[8:1],1-5[8:1],6,2,3-8[8:1],4,3,5,
1b/7b-4[8:1],5/3-8[8:1],7,3,5,7/3,1/2,4/6,
5b/3b-8[8:1],8-4[8:1],3,7,6-1[8:1],5,6,4,
8b/2b-8[8:1],6b-4[8:1],2b>5b[8:1],6b<1b[8:1],2b-6[8:1],6b,{4}2b,
{8}4b,5,6b-1[8:1],6,4b>1[8:1],4,7b-3[8:1],7,
2b-6[8:1],2,8b-5[8:1],8,2b,3,4b/6b,7/3,
{16}2b,8,5b,6,4,7,1b,8,2b,6,3,4,1b,5,8b,7,
{32}2b,3,4,5,6,7,8,1,2b,3,4,5,6,7,8,1,2b,3,4,5,6,7,8,1,{4}2b/C,
4b/6bh[2:1],4,4,{8}7b/5b,7bh[4:1]/5bh[8:1],
,,4b/2b,4bh[8:1]/2bh[4:1],,,{4}7bh[8:1]/1bh[8:1],
6bh[8:1]/4bh[8:1],8bh[8:1]/1bh[4:1],{8},3bh[8:1]/4bh[8:1],,5bh[8:1]/2bh[4:1],
,,8b,8b,{4}8b<5b[8:1]*-2b[8:1],8b,
{16}3,3,3,3,3,3,3,3,{4}4b/2b,{16}6,6,6,6,
6,6,6,6,{4}7b/5b,{8}8b/2b,6b/4b,5b/2b,1b/7b,
{16}3b,4b,2b,5b,1b,6b,8b,7b,5b,5b,6b,4b,7b,3b,8b,1b,
8b,8b,8b,8b,8b,8b,8b,8b,8b,8b,8b,8b,8bw4b[8:1],8b,8b,8b,
{64}8b,B8,Cf,B5/B4/B3,
E
