&title=君の知らない物語
&artist=supercell「化物語」
&first=0
&des=
&wholebpm=165
&demo_seek=54.7
&demo_len=14.3
&des_6=lixiaojuan
&lv_6=12+
&inote_6=(165.0){1},
{8}4/5-1[8:1],,5/1-6[8:1],,3,,56,,
{8}4/5-1[8:1],,5/1-4[8:1],,7,,6,,
{2}3^6[8:1],3-6[8:1],
{8}2b/6b,,3b/7b,,2b/6b,,3b/7b,,
{8}3-1[8:1],,34,,8b,,3b,,
{8}6-1[8:1],,56,,7b,,4b,,
{8}4,,4,5,,4,5,6,,
{8}7,6,5,,4b,,,
{8}4h[8:7],,,,,,,,
{8}3b/6b,,,3,,6,,6h[8:7]/8b-4[8:4],
{8},,,,,,,,
{8}1,1,1,1,1b,1b,1b,1b,8,
{8},7,6,5b,4,3,2,1-7[8:1]-5[8:1]-1[8:1],
{8},,,,,,1,2,3,4b,5,6,7,8-5[8:2]-2[8:2]-8[8:2],,
{8}8b,,,,,,,,
{8}4h[8:4],,,,5h[8:4],,,,
{8}1h[8:4],,,,8h[8:2],,,25,
{8}3/4p7[8:3],,,,,,3-8[8:7],4-7[8:6],
{1},
{8}3,3,4,4,5,5,6,6,
{8}7,7,8-4[8:2],,,,,,
{8}1,1,2,2,3,3,4,4,5z1[8:4],,
{8}5b,,,,,,
{8}6-3[2:1],,,,3-8[2:1],,,,
{8}8-5[2:1],,,,5-2[2:1],,,,
{8}2-6[2:1],,,,6-3[2:1],,,,
{8}3-8[2:1],,,,8-5[2:1],,,,
{8}5b-3[2:1],,,,,,,,
{8}8,8,8,8b,,,13,,
{4}24,35,46,57,
{4},3,2,6,
{4}4,5,3,6h[8:4],
{4},1,2,,
{8}8h[1:1],,,,2,3,1,,
{8}1h[2:1],7,4,3,5h[2:1],,,,
{8}4h[2:1],,,,,,2,4,2,
{8},8,7,,6,,7h[8:3],8>2[8:1],
{8},8,,8<6[8:1],,1,,
{8},,2,3,,4,,1h[8:3],
{8}8<6[8:1],,8,,8>2[8:1],,6,,
{8}7,,6,6,,7h[8:3],8>2[8:1],,
{8}8,,8<6[8:1],,8,,8>2[8:1],,
{8}8,,,,34,,45,,
{8}6b,,,67,7,,,1,
{8}6h[8:2],,,4,3,,3,4,
{8}5-8[8:1],,5,,4-1[8:1],,4,,
{8}2,,4,5,,4,,3h[8:3],
{8},,1<7[8:1],,1,,1>3[8:1],6,
{8}6,,5,4,,4b,,5h[8:3],
{8}8-5[8:1],,8,,1-4[8:1],,1b,,
{8}5h[8:6],,,,,,4h[8:1],3h[8:5],
{8},,,,,,8,,
{8}7h[8:5],,,,,,4b-1[1:2],,
{8}4b,5,6,6,7,7,8,8,
{8}8,8,7,7,6,6,5,5,
{8}4,35,5,46,78,12,6,,
{8}7,,8,1bw5[8:6],
E
