&title=昔涟
&artist=HOYOVERSE
&first=0
&lv_5=13+
&des_5=光明喵
&inote_5=
(85){8},{32}E8,{16},{32}E1,{16},,,E6,{32},E3,{16},,,{32}E5,{16},{32}E4,{2},{32}B1,
{16},{32}E3,{16},,,E8,{32},E4,{16},,,{32}B6,
{16},{32}E5,{16},,,,,,,1,{32},,,8,{16},2,{8},7<3[0.3529##0.5294],
3<7[0.5294##0.5294],{32},,,,,,,,,,,,,6,{16},5,4pp4[1.7647##0.7059],{32},,,,,,,,,,,,,2,
{16},3,4bqq4[4:1],,,,,,,,,,7,
{8},8p3[1.5882##0.5294],1q6[1.2353##0.5294],{16},6,,3,,{32}E1,B8/B1,{8}Ch[32:1],
{16},,,8h[16:1]/1h[16:1],{4}7h[32:3]/2h[32:3],{16},,,,,1-4<5[1.2353##0.3529],,5-8>1[0.8824##0.3529],
{4},1b/5b,{32},,,8w4[2.1176##0.3529],{8},5<8[1.2353##0.4412],3>8[0.8824##0.4412],
{16},{32}B8,B7/B1,B6/B2,E6/E3,{16}A5/A3,{32},,,,,,,,,,,,,7V58b[2.2941##0.6176],{16},{32}2V41b[2.0294##0.6176],{16},{32}8q4b[2.2941##0.5294]/1p5b[2.2941##0.5294],,,,,,,,,,,,7bh[32:9],
{16},2bh[16:3],{32},,,,,D7/D3,A6/A3,A5/A4,B6/B3,B7/B2,A8/A1,E1,B7/B2,B6/B3,E6/E4,A5/A4,{4},{8}1h[32:3],
8h[32:3]/B2h[32:3]/B3h[32:3]/E3h[32:3],4h[32:3]/B7h[32:3]/B6h[32:3]/E7h[32:3],{32},,,5h[32:3]/B2h[32:3]/B3h[32:3]/E3h[32:3],,,,1h[32:9]/B7h[32:3]/B6h[32:3]/E7h[32:3],,,,,,8h[32:3],{16},,,,,{8}1w5b[2.1176##0.0882],
8w4b[1.7647##0.0882],,{16}A6/D7/E7,A3/D3/E3,{32},,,Ch[32:5],{8},{1}A5/B5/E5/B4/A4,
{4},7h[16:17],,{16}8,1,{32},2<6[0.7941##0.3529],{4},{16}2b,
,,,1>4b[1.6765##0.0882],4>1b[1.5##0.0882],{8},{16}8<5b[1.3235##0.0882],{32},5<8b[1.0588##0.0882],{16},,,{8}A1/D2/A2/D3/A3/D4/A4,
A8/D8/A7/D7/A6/D6/A5,{16},,,4>5b[0.9706##3.7941],{32},3>5b[32:43],{8},{16}2<5b[0.2647##3.7941],{32},1h[8:1],,,,8h[8:1],,,,1v7[0.8824##0.2647],
{16},,,{32}8,{16},{32}1bv6[0.8824##0.2647],,,,,,7,,,,1b-5[0.9706##0.3529],{16},,,{8}6,
{1}1b,
{32}4bh[4:1],{16},{32}5bh[32:5],{8},{32}E5,B5/B4,B6/B3,E7/E3,B7/B2,Ch[32:3],{16},,,,,{32}8<5[0.8824##0.1765],{16},{32}1>4[0.8824##0.1765],{16},,,8b-4[0.8824##0.1765],
{32},1b-5[0.8824##0.1765],{16},,,{32}8b,{16},{32}1b,,,,,,,,,,,,8xh[8:1],{8},{32}D8/D2,
A7/A2,A6/A3,5xh[8:1]/4xh[8:1]/D6/D4,{8},{32}D6/D4,A6/A3,A7/A2,D8/D2,{8}8xh[32:9]/1xh[32:9],{4},{8}1<5b[0##0.9706],{16}8<5b[0##0.6176],7<5b[0##0.4412],
{32}6>5b[0##0.2647],{16},{32}A5h[16:1]/D6h[16:1],{8},{16}5x<4b[0##1.5],6<4b[0##1.3235],{32},7>4b[0##1.0588],,8>4b[0##0.8824],,1>4b[0##0.7059],{16},2>4b[0.1765##0.2647],3<4b[0##0.2647],{32},D4h[16:1]/A4h[16:1],{4},{16}5-7>8v1>2-4<5[1.1471##0.7941],
{32},,,,,,,,,,,E7/B6/A6,{16},B8/B7/E8,{32}A1/D2/E2,{16},{32}4xh[16:1],{4},{32}8h[16:5],
{16},{32}1h[32:7],{16},,,Ch[32:81],{32},,,,,,,,,,,,,1>6b[0##6.1765],{16},{8}8<4b[0##5.9118],
{32},,,2h[32:1],{16},7h[32:1],,,,3h[32:1],{32},6h[32:1],,,,,,,,,,,,1w5[2.5588##0.3529],,,,2h[16:3],
{16},,,,,{8}8h[8:1],{16},,,1bh[8:1],,,,,,,,,,,,,,,,,,,,1xqq1[0.7941##0.3529],
1x,1xpp1[0.7941##0.3529],{32},1x,,1bx,{16},,,,,5xpp5[0.7941##0.3529],5x,5xqq5[3##0.9706],{32},5x,,5bx,,,,,,,,,,,,1<5[0.2647##1.2353],
{16},1b/Ch[16:71],{4},,,,,{8}1b>4p4[0##1.7647],
,,,,,,,,,5b<8p8[0##1.7647],
,,,,,,,,,4b>1q1[0##1.7647],
{1},{16},,,{32},8-5b[2.2059##0.7059],
,5-8b[2.0294##0.7059],,,,,,,,1-4b[1.3235##0.7059],,4-1b[1.1471##0.7059],,,,,,,,6-3[0.4412##0.3529],
{16},7-2[0.1765##0.3529],{32}7b/6b,B8/B5/E8/E6,Ch[32:1],B1/E2/B4/E4,{8},{32}D1/A8/A1/A5/D5/A4,{16},,,{32}7-2b[2.1176##0.8824],,2-7b[1.9412##0.8824],{4},{16}6-3b[1.1471##0.8824],
{8}3-6b[0.9706##0.8824],{32},,,8-5[0.3529##0.2647],,1-4[0.1765##0.2647],,8b/1b,,,,,,,,,,A7/D7/A6/A2/D3/A3,{8},{16}6b-8-2[1.5##0.1765]/2b-4-6-8[3.2647##3.9706],
{32},,,,,,,,,,,,,,,6b,A8,A2,,,,,,,,,,,,,,,,,,2b,
A4,A6,{1},,{16},,,{32},E8,
{16},E2,{8},{16}E6,{32},,,,,,,,,,,,,E8,
{16},{32}E2,{16},,,{32}A6/D6,{16},A3/D4,{32},,,,,E7/B7/B6,{16},{8}B2/B3/E3,
{32},,,,,,,,,8x<5b[0##2.6471],,,,1/A7/D8,{16},{32}A6/D7/1>5b[0##2.0294],{16},,,{32}8/A2/D2/D3,{16},A3/D4/A4,{32},,,,,1-5[0.2647##0.2647],
{16},{8}1b,{32},D6/D5,,A6/A4,{16},D7/A3,{32}A7/D3,{8},{32}1x>1>1>1>1>1>1>1>1>1b[0##17.2059],,,,,,D2/A2,,A3/D4,{16},D5/A5,
D6/A6,{32},A7/D8,{16},{4}A8/D1,{16}1-3-5-7-1-3[0.9706##0.8824],{4},{16}1b,{32},A3/D3,,A5/D6,
{16},A7/D8,{8}A1/D2,{16},,,4bh[32:1],{4}5bh[32:1],6b-1[0##0.2647],
{16},,,A1/D2,{32},D3/A3,,,,,,,,A4/D5,{16},{8}D6/A6,{32},,,D7/A7,{16},A8/D1,
,,,,,1x-3-5-7-1[8:1],{32},,,1x,{16},1bx,{32},,,,,1x-3-5-7-1[0.3529##0.3529],,,,1bx,,,,,,,,1bx,
{16},{32}A1,D2,A2,D3,A3,D4,A4,D5,A5,D6,A6,D7,A7,D8,A8,D1,A1,D2,A2,D3,A3,D4,A4,D5,
A5,D6,A6,D7,A7,D8,A8,D1,A1,D2,A2,D3,A3,D4,A4,D5,A5,D6,A6,D7,A7,D8,A8,D1,{4}A1,
{32},,,,,,,,,,,,,,,1x>1b[0##1.5882],{16},1,{32},,,,,{64}1b/A1,D2,A2,D3,A3,D4,A4,D5,A5,D6,A6,D7,A7,D8,
A8,D1,{32}A1,,,,,,8-6b[1.7647##0.0882],{16},1-3b[1.7647##0.1765],,,,5-7b[0.7941##0.0882],{8}4-2b[0.8824##0.1765],{32},,,A7h[16:1]/D7h[16:1]/E7h[16:1]/A6h[16:1],{16},A2h[16:1]/D3h[16:1]/E3h[16:1]/A3h[16:1],
{32},,,,,,,,,,,7bz3<5b[0##2.7353],{8},{32}7-2[0.2647##0.2647],{16},{32}7b,{16},,,6-3[0.2647##0.2647],{32},6b,{16},,,{32}1>5[0.2647##0.2647],
{16},{32}1b,{8},{16}1b>1>1b[0##2.9118],2b>2>1b[0##2.7353],3b<3<1b[0##2.5588],4b<4<1b[0##2.3824],{8},{16}A5/D6/D5/E6/E5/B5,A7/D7/A6/E7/B7/B6,{32},D8/A8/D1/E8/B8/E1,,D2/A1/A2/E2/B1/B2,
,D3/A3/D4/E3/E4/B3,{16},{32}A4/B4/D5/E5/A5/B5,{16},{32}D6/A6/D7/E6/E7,{16},D8/A8/D1/E8/E1/B8,{32},A1/D2/D1/E1/B1/E2,{8},{16}7x-1-6-2-5-3[1.1471##0.7059]*-3b[1.1471##0.7059],{32},,,,,,,,,,,A7/D8/E8,
,B8/B7/E8,,C,,B3/B4/E4,,A3/D4/E4,{4},{32}1b>1b[0##1.6324],{16},{32}1,{16},,,{64}1b/A1,D2,A2,D3,A3,D4,A4,D5,A5,D6,A6,D7,
A7,D8,A8,D1,{16}A1,{32},,,,,1-3-5b[2.0294##0.3529],{16},{8}1,,{32}5-7-1b[1.4118##0.3529],{16},{32}5,,,,,,1,{16},{64}1b/A1,
D2,A2,D3,A3,D4,A4,D5,A5,D6,A6,D7,A7,D8,A8,D1,{32}A1,{16},{32}8/1,,,,,,8w4b[2.0294##0.0882],{16},{8}4w8b[1.5##0.0882],{32},,,2/6,{16},Ch[32:3],
{32},,,,,A7/D8/A8/D1/A1/E8/E1,{16},{4}D5/A5/A4/D4/A3/E5/E4,{16},,,,,,,,,,,,,,,1>1b[0##3.6176],
{32}2x>1b[0.0882##3.3529],{16},{32}3<1b[0.0882##3.0882],,4x<1b[0##3],,5<1b[0##2.8235],,,,,,,,,,6/4,
,7/3,{16},8/2,{32}7/3,{16},{32}5w1[0##1.0588],{1},{4},,{16},1>1>2<2<1b[0##5.3824],
{8}8x,{16}7,6x,{32},5,,,,,,,,,,4,,3x,{16},2,1x,{32},A1,{4},{64}A1,
D2,A2,D3,A3,D4,A4,D5,A5,D6,A6,D7,A7,D8,A8,D1,{16}A1,{32},,,{64}A1,D1,A8,D8,A7,D7,A6,D6,A5,D5,A4,D4,A3,D3,A2,D2,{32}A1,{4},,,{16},,{32},A8/D8/E8/B8,
{16},{8}A1/D2/B1/E2,
{32},,,,,D6/A5/A6,{16},{4}A4/D4/A3,{16}B3/E3,B2,{8}1>3-7<6-2[0##2.4706],
E
