&title=怪獣
&artist=sakanaction
&first=1
&des=1zhml 这是本人的第三张谱,尝试在majdata上投稿了!!希望以后会成为自制谱大手子
&lv_4=13+
&lv_5=13+
&inote_4=
&inote_5=(180)
{2},,
{8}4,5>3[16:4],,6h[8:11],,,,,1,,,3h,,,,,
4,5>3[16:4],,6h[1:1],,,,,1,,,3h,,,,,
4,5-2[16:4],,6h[16:6],,,,,7,5pp7[16:5],,4h,,3h,,,
4,5-2[16:4],,6h[16:6],,,,,7,5pp7[16:4],,4h,,3h,,,
4,5>3[4:1],,6h[8:11],,,,,1,,,3h,,,,,
4,5>3[16:4],,6h[1:1],,,,,1,,,3h,,,,,
4,5-2[16:4],,6h[16:6],,,,,7,5pp7[16:4],,4h,,3h,,,
26,,,48,,,,,7/3<3[8:12],,,,
{2},,,
{8}4/6h[4:1],,4,,4/2h[4:1],,4,5,4,6pp8[4:1],,,5-3[16:3],,7-5[16:3],,1-3[16:3],,4-6[16:3],,4-2[16:3],,,6,5-8[8:1],,,,1-4[8:1]/2-5[8:1],,,,6>3[8:1],,7,,6,5,3,,2,4>2[8:1],,5h,,7h[8:1],1,8,8<5[8:1],,4,,3<5[8:1],,6,7>7[8:5],,,4h[8:4],,,,,,
{8}5/8<6[8:1],,5,,5/2>4[8:1],,5,6,5,7>2[4:1],,2>5[4:1],,5<8[4:1],,8>3[4:1],,3qq6[2:1],,4,,,,,5-1[8:1],,,,8b-6[8:1]/2b-4[8:1],,,,6>3[8:1],,7,,6,5h[8:1],3,5h[8:1],6,5h[8:1],3,5h[8:1],6u,5h[8:1],3,5-1[8:1],,,7-4[8:1],,8v3[8:1],,5,5w1[8:7],,,,
{2},,,
{8}5,6h[1:1],,5,,7,,1-5[8:6],
{2},,
{8}4,3h[8:6],,4,,2,,
{16}8,7,6,5,
{8}4/2-8[8:1],,7,,6-1[8:1],5,4,,2-8[8:1],,7,,6-1[8:1],5,4,3,2-8[8:1],,7,,6-1[8:1],5,4,3,28,28,37,37,6h[8:1],5h[8:1],4h[8:1],3h[8:1],1-5[8:6],,,
{2},
{8}4,3h[8:6],,4,,2,,8-4[8:6],
{2},,
{8}5,6h[8:6],,5,,7,,
{16}1,2,3,4,57,,
{8}6,45,3,8,2,34,5,8,6,35,2,8,7,1,2,36,3,38,3,34,3,37,4,6h[4:1],,5h[4:1],,4h[4:1],,3h[4:1],,
{8}1<5[16:3],,2-6[16:2],,4>5[16:7],,7b,,,,8-4[16:2],,6<5[16:7],,3b,,,,3-7[16:2],,5>6[16:7],,8b,,,,1-5[16:2],,
{16}7>7[16:7],,,,4b,,,,,,,,8/3b,1,2,3,4,5,6,7,8/1b-5[16:6],,
{8},,,,,7,,6V47[2:1],,4,,3,,2,,1-5b[2:1],,,,
{4},,
{16}5h,,6h,,
{8}8>4[16:3],,7-3[16:2],,5<4[16:7],,2b,,,,1-5[16:2],,3>4[16:7],,6b,,,,6-2[16:2],,4<3[16:7],,1b,,,,8-4[16:2],,
{16}2<2[16:7],,,,5b,,,,,,,,1/6b,8,7,6,5,4,3,2,1/8b-4[16:6],,
{8},,,,,2,,3V52[2:1],,5,,8,,7,,6pp2[4:3],,,,3-7[4:1],
{2},,
E
&inote_6=
