&title=HEARTACHE
&artist=濵田有共
&first=0
&des=KuSA
&lv_5=12
&inote_5=(90)
{1}
,,
{8}
3<6[4:1],,5,,7p3[4:1],,4,,1h[4:1],,8,1,7-5[8:1],,,,
6>3[4:1],,4,,2q6[4:1],,7,,8h[4:1],,1,8,2b-4[8:1]/7b-5[8:1],,,,
3h[8:1]/6,5,1h[8:1]/4,5,3/6h[8:1],4,5h[8:1]/8,7,
6h[24:3]/4h[24:3],,5h[24:3]/3h[24:3],,4/6,3/5,7/4,2/5,1/8V25[8:2],,3,,
1V74[8:2],,6,,8h[4:3],,,,4z8[16:2],,,,
{24}
6/2,,,,,3,4,,4,3,,3,5,,5,4,,4,6-1[12:1],,6,5,,,,,,,,2,4,,4,5,,5,7,,7,5,,
5,4-1[12:1],,4,2,,,,,,,,,6-8[12:1],,6,5,,5,6,,,,,3,5-1[12:1],,5,4,,4,
5pp5[16:3],,,,,,4qq4[16:3],,,1,,,6V85[16:3],,,8,,,3,,,1,,,
2/4,,2,5,,5,4,,4,7,,7,6,,6,8,,8,1,,1,3,,
3,2,,2,3,,3,4,,4,5,,5,6,,6,7,,7,8,,8,1,,1,
2-6[8:1],,,,,,7-3[8:1],,,1,,,2,,,8,,,
4-8[12:1],,,2/6,,,4>1[12:1]*<7[12:1],,,,,,4pp7[4:1],,,,,,8>4[6:1],,,,,,,,,,,,
5b/7b,,,6/8h[8:5],,,6,,,,,,6,,,6,,,5,,5,7,,,8/6,,,5/7,,,
6h[16:1]/4h[16:1],,,6h[16:1]/4h[16:1],,,3h[16:1]/5h[16:1],,,
3h[16:1]/5h[16:1],,,{16}4/6,4b/6b,,,{24}2/4,,,1/3pp7[8:3],,,1,,,,,,
1,,,,,,1p5[12:1],,,8,,,1>4[12:1]/2,,,3,,,1/8q5[12:1],,,6,,,7/8<1[16:3],,,
6,,,3/8z4[4:3],,,,,,,,,,,,,,,,,,,,,,,,1b,,,,,,
4w8[8:3]/5,,,,,,,,,,,,,,,,,,
2pp4[12:1]/6pp8[12:1],,,37,,,6b/2b,,,,,
3,5-1[12:1],,2,8,,,5/6,,,8,,2,4-8[12:1],,1,7,,,5/4,,,7,,
1-5[12:1],8-4[12:1],,2,7,,1,8,,,3,,3,4q1[12:1]/5p8[12:1],,,2/7,,,
4b/5b,,,,,7,8-3[12:1],,5,1,,,7/8,,,6,,2,1-6[12:1],,4,8,,,1-4[12:1]/2,,,3,,,
1/5-8[12:1],,,7,,,4/5-2[12:1],,,3,,,5/8w4[12:1],,,7,,,8b,,,,,
3,4p8[12:1],,1,8,,,4/5,,,7,,6,5q1[12:1],,8,1,,,4>5[8:3]/5<4[8:3],,,,,,,,,,
,,,,,,,,{48}2-6[12:1],3,4,8,7,6,1,2,3,7,6,5,
{24}2b,,,,,7v4[12:1],8>3[12:1],,6,5,,7,8,,,,,
4,5-1[12:1],,2,8,,,4/5<8[12:1]*>2[12:1],,,,,,5qq2[4:1],,,,,,
1<6[12:1],,,,,,1b-5[12:1],,,,,,1/6,,,8,,,4/1-5[12:1],,,28,,,6/1,,,8,,,
4/1-5[12:1],,,2/8,,,1/6>3[12:1],,,6,,,2,,2,1,,3,4,,6,5,,7,
8-4[12:1],,,1/7,,,8/3,,,1,,,8/5-1[12:1],,,4/6,,,2/5,,,4,,,
8-4[12:1]/5-1[12:1],,,6/7,,,8>3[12:1]*<5[12:1]/5,,,,,,8q4[12:1]*p4[12:1],,,,,,
8,,,,,,2/4-8[12:1],,,3/5,,,4/7,,,5,,,1/4-8[12:1],,2,5,,,4/7,,,5,,,
1/4-8[12:1],,2,5,,,4qq5[8:3]/7pp5[8:3],,,,,,,,,,,,,,,,,,{48}
7-3[12:1],6,5,1,2,3,8,7,6,2,3,4,{24}7b,,,,,2v5[12:1],1<6[12:1],,3,4,,2,1,,,,,
8,1-5[12:1],,6,3,,,{16}1>4[12:1]/8,,6,6,1<6[12:1],7,7,3,1s5[16:2],2,2,6,,,,,
3/4,,1h[8:5]/5,,4,4,,,8,,,,{24}4,,4,2,,,5/6,,,4/8h[8:5],,,{16}5,5,,,1,,,,
{16}5,5/7,,,4/3V15[4:1],,6/1,,5V73[4:1],,,,3,,,,{24}5,,5,4,,,
{16}6-2[12:1]/4,,5,4,3-8[12:1],,4,6,7-3[12:1],,5s1[2:1],1,2b,
