&title=抑止力
&artist=otone / 初音ミク & 重音テト & 亞北ネル
&first=0.02
&des=Nuke / Just DO IT
&clock_count=4
&lv_1=
&des_1=Nuke / Just DO IT
&inote_1=
&lv_2=
&des_2=Nuke / Just DO IT
&inote_2=
&lv_3=
&des_3=Nuke / Just DO IT
&inote_3=
&lv_4=
&des_4=Nuke / Just DO IT
&inote_4=
&lv_5=13+
&des_5=Nuke | Just DO IT
&inote_5=(189){1},
{16}1h[4:1],,,,
{48}A7,D7,A6,D6,A5,,,,,,,,
A1,D2,A2,D3,A3,,,,,,,,
{16}4,,4,,
3/5-3[8:1],,,,2h[16:4],,,,
1-7[8:1],,1,,
2,,2,,6-4[8:1],,6,,3h[4:1],,,,
E2,,E1,,E8,,E7,,
2-4[8:1],,,,8h[4:1],,,,
1-3[8:1],,1,,7-5[8:1],,7,,
E1,,E2,,E3,,E4,,E5,,E6,,E7,,E8,,
1-3[8:1],,,,7h[4:1],,,,
4-2[8:1],,4,,8-6[8:1],,8,,1,,1,,1h[4:1],,,,
E6,,E7,,E8,,E1,,
5>2[8:1],,,,8h[4:1],,,,
1>3[8:1],,1,,7<5[8:1],,7,,
E5,,,,E1/E2/E8,,,,
E7/B6`C`B3/E3,,,,
1x/8x,,,,
7h[1:2]/2,,,,3,,,,4-6[8:1],,,,,,,,5-3[8:1],,,,,,,,2-4[8:1],,,,,,,,
5h[8:6],,,,6-8[8:1],,,,,,,,1-7[8:1],,,,2h[8:6],,,,
E6,,E5,,E4,,E3,,E2,,E1,,
6h[1:2],,,,2,,,,2-4[8:1],,,,,,,,3-5[8:1],,,,,,,,4-2[8:1],,,,,,,,
1h[8:6],,,,4-6[8:1],,,,,,,,5-3[8:1],,,,6h[8:6],,,,
E2,,E1,,E8,,E7,,E6,,E5,,
2h[1:1],,,,,,4-1[4:1],,4,,,,,,,,8-5[4:1],,8,,,,4,,4h[2:1],,,,6,,,,6-3[4:1],,,,,,2-7[4:1],,
,,,,5,,,,5h[8:5],,,,
E8,,E1,,E2,,E3,,E4,,E5,,
7h[1:1],,,,,,6-1[4:1],,6,,,,,,,,2-5[4:1],,2,,,,8,,8h[2:1],,,,5,,,,5-2[4:1],,,,,,8-5[4:1],,
8,,,,1-5[8:1],,,,1<6[8:1],,,,1>4[8:1],,,,1,,,,8,,7,,
3h[4:1]/6,,,,,,4-2[8:1],,5h[4:1],,,,,,
6-4[8:1],,,,2-8[8:1],,,,6-3[6:1],,,,2,,
2h[4:1],,,,1h[4:1],,,,,,2-8[8:1],,3h[4:1],,,,,,
4-2[8:1],,,,8-6[8:1],,,,4-1[6:1],,4-7[6:1],,,,,,,,
1h[4:1],,,,,,8-2[8:1],,7h[4:1],,,,,,
5-3[8:1],,,,1-7[8:1],,,,5-1[8:1],,,,6,,
6h[4:1],,,,8<5[8:1]*p4[8:1],,,,8,,,,
2>5[8:1]*q6[8:1],,,,2,,,,
1/7,,7,,2/8,,8,,1,3,1,3,8,2,8,2,
1V35[8:13]*V75[8:13],,,,,,,,,,,,,,,,,,,,,,,,,,,,,,,,
E5,,,,,,,,E6/E4,,,,,,,,E7/C/E3,,,,
1/8>6[16:6],,,,3q7[8:1],,,,,,,,
1,,7,,2/8,,2,,1-6[8:1],,3,,1,,4,,5pp4[16:6],,2,,1v3[8:1],,,,1,,,,,,
6,,5/7,,7,,4/6,,6,,5-1[8:1],,,,3/5,,2,,8<5[8:1],,1,,8-3[8:1],,,,8-4[8:1],,,,8,,3,,
3,,7,,4/6,,6,,4-7[8:1],,2,,4,,1,,8qq7-1[16:6],,1,,2v4[8:1],,,,2,,,,,,
8,,1/7,,2/6,,2,,3/5,,4-1[8:1],,4,,5,,6,,8v6[8:1]*-5[8:1],,,,8v2[8:1]*-3[8:1],,,,8,,,,7,,3,,
4/6,,6,,5/7,,7,,8<5[8:1],,3,,8,,2,,1pp2-8[16:6],,6,,5v7[8:1],,,,5,,,,,,
7,,6/8,,6,,1/7,,7,,8-4[8:1],,,,2/8,,1,,1<6[8:1],,2,,1>4[8:1],,,,1-5[8:1],,,,1,,3,,
4/6,,4,,3/5,,3,,5-8[8:1],,2,,5,,3,,4qq5[16:6],,7,,6v8[8:1],,,,6,,,,,,
7,,4/7,,4,,3/6,,3,,2>5[8:1],,5,,2,,6,,6v1[8:1]*-8[8:1],,,,6v3[8:1]*-4[8:1],,,,6,,,,
E7/B7/B6`Cf`B3/E3/B2,,,,1x/8x,,,,
2h[8:4]/7-5-8-4[8:3],,7,,,,,,,,,,1,,2-6-1-7[8:3],,3h[16:4],,,,,,,,E4f,,,,
5hx[8:4]/8x,,,,8x-6-1-5[8:3],,,,,,,,4,,3,,
2h[8:1],,4,,6h[8:1],,8,,2/Ch[16:1],,,,4h[4:1],,,,6,,,,
7h[8:4]/3-5-1-7[8:3],,,,,,,,,,,,6,,5-7-2-4[8:3],,4,,,,E1f,,,,Cf,,,,3x,,,,
8hx[8:4]/4x-6-3-1[8:3],,,,,,,,,,,,
7h[16:1],1,7h[16:1],,6h[16:1],2,6h[16:1],,5h[16:1],3,5h[16:1],,
4h[1:0],,4h[1:0],,6,,,,
2<7>2>4[8:3]/5h[8:4],,,,,,,,,,,,5,,6>3<6[8:3],,7h[16:4],,,,,,,,,,,,7/8,,,,
1h[8:4]/5>3<6<8[8:3],,,,,,,,,,,,2,,3,,
4h[8:1],,6,,8h[8:1]/Ch[16:1],,,,7h[4:1],,,,1,,,,
2<8>3<5[8:3]/6h[8:4],,,,,,,,,,,,6,,7>5[8:4],,8,,,,E5/A4/A5,,,,C,,,,
1,,1,,6,,6,,2,,2,,5,,5,,
3,,3,,6,,6,,4,7,4,7,3,8,3,8,2V46V82[8:14],,,,,,,,,,,,,,,,,,,,,,,,,,,,,,,,
E5,,,,,,,,E6/E4,,,,,,,,E7/C/E3,,,,
1/8>6[16:6],,,,3q7[8:1],,,,,,,,Cf,,,,,,,,,,,,,,,,,,,,,,,,,,,,,,,,
4h[1:1],,,,,,,,E7,,,,,,,,E1,,,,E5,,,,C,,,,2,,,,
2h[1:1],,,,,,,,E6,,,,4,,4,,4h[2:1],,,,E2,,,,E4,,,,
5,,6,,6h[4:1],,,,E2,,,,4,,,,E8/4<4b[8:6],,,,,,,,,,,,,,,,,,,,
A7h[32:1]/A8h[32:1]/E8hf[32:1]/B7h[32:1]/B8h[32:1]/4bx,,,,,,,,
A6h[32:1]/A5h[32:1]/E6hf[32:1]/B6h[32:1]/B5h[32:1]/1bx,,,,,,,,
A4h[32:1]/A3h[32:1]/E4hf[32:1]/B4h[32:1]/B3h[32:1]/7bx,,,,
A5h[32:1]/A6h[32:1]/E6hf[32:1]/B5h[32:1]/B6h[32:1]/2bx,,,,8x/C,,E2,E8,E4,E6,Cf,,8x,,
1x,,7x,,1x,,2x/6x,,3,,5<8[8:1],,2,,5>1[8:1],,4,,5-1[8:1],,,,5,,,,3,,7,,
1,,2/5,,3,,6-1[8:1],,4,,6/3,,2,,8,,4qq5[16:6],,6,,8v6b[8:1],,,,8,,,,,,
7,,4/6,,5-8[8:1],,3,,5/2,,1,,2,,3/7,,2/8-4[8:1],,7,,
8<5[8:1]/4,,3>8[8:1],,8,,3,,,,5,,5,,1-5b[8:1],,,,1b/8b,,,,
6,,6,,2,,3/4,,2pp1b[16:6]/8,,6,,8v6[8:1]/2,,,,8,,,,,,
8,,1/6,,5,,2-5[8:1]/4,,3,,2/6,,7,,7,,
3/8,,4<7[8:1],,2/5,,4>1[8:1],,3,,4-8[8:1],,,,4,,1,,
7,,6,,3/8,,4,,1-5[8:1]/6,,5,,1/8,,7,,8qq7-1b[16:6],,3,,4v2b[8:1]/8,,,,4,,,,,,
3,,4/8,,7,,3/6,,2,,4-8[8:1],,1,,4/3,,
2-6[8:1],,3,,2/6,,7,,8,,8w4b[8:1],,,,
{64}8bx,,Cf,,,,,,
{16},,2bx/6bx,,,,
2-7[8:1],,2,,6-3[8:1],,6,,1,,1,,2V46[4:1],,2,,8,,8,,E8,,E7,,E6h[32:1],,E5h[32:1],,
8-3[8:1],,,,6,,6,,5<8[8:1],,5,,4>1[8:1],,4,,E8,,E7,,E6,,E5,,E4,,E3,,E2h[32:1],,E1h[32:1],,
7-4[8:1],,,,1,,1,,2-5[8:1],,2,,8-4[8:1],,8,,3V17[4:1],,3,,5,,5,,
E6,,E7,,E8h[32:1],,E1h[32:1],,
4-8[8:1],,,,6,,6,,7-4[8:1],,7,,2-7[8:1],,2,,
E5,,,,E1/E2/E8,,,,
E7/B6`C`B3/E3,,,,
E5h[32:1],,E1h[32:1],,
E
&lv_6=
&des_6=Nuke / Just DO IT
&inote_6=
&lv_7=
&des_7=Nuke / Just DO IT
&inote_7=
