&title=その絵の名前は
&artist=蝶々P
&first=-0.31
&des=fuwan vs GBLKH
&des_5=fuwan vs GBLKH
&lv_5=12+
&inote_5=(86){4},{8},,,5,3qq5[16:5],{16}5,6,
,6,{8}7,{16},,8,5,7h[16:3],,,5,{8}5,{16}6,4,
{8}5h[2:1],{16},,,,E2,E3,E4,,,5,{8}5-7-1[16:3],{16}4,4,
,,{8}4,3v8[8:1],8>3[8:1],7,{16}6,6,,5,{8}4/5h[4:1],
{4}4h[8:1],3h[8:1]/4h[8:1],{8}3/2h[8:1],4pp8[8:3],3,{16}3,2,
,2,{8}1h[8:1],{16},,7,2,6h[4:1],,,3,{8}4h[8:1],5<8[8:1],
{4}3h[8:1],{8}2h[8:1],{16}1,1,3h[8:1],,,5,{8}5,{16}4,6h[16:3],
,,{8}3,7h[4:1],2,{4}1<7-5[4:1],5-3>1[4:1],
{8}8h[4:1],,,6-8-2[4:1],4h[4:1],,,3>7-1-3[16:5],
{16}5,{32},,,,6x,5x,{8}4x,6,{16}5,4,{8}6,{16}4,5,{8}3,
3/5<8[8:1],4,5/2,4,{16}3/1v6[8:1],3,{8}3,{16}1v4[8:1],2,{8}2,
5/1,6,7/5,8/4,{16}7h[8:1],5,4,3,6h[8:1],4,3,2,
7/1q5[8:1],8,{8}5,1/6,{16}8,8,3,5,{8}6h[8:1],4,{16}3h[4:1]/E1,E8,
E7,E6,{8}E5,{4}B2/Cf/B6/A6/A2,{8}8<5v8[8:3],5,4,{16}3,3,
,2,{8}2pp4>1[8:3],,1,{16}8,,,7,{8}7,{16}6,6qq1[4:1],
,,,,{8}1,{16}2,3,4>1[4:1],,,1,{8}1<6[16:3],{16}5,5v3<4v2[16:5],
,,{8}1x,8,7,6<1[8:1],{16}3,3pp8[16:7],,4x,{8}4bxpp8b[4:1],
,,,,2>4v1[16:5],4,5,{16}6,6,
,7,{8}7qq1<5[16:9],5x,1,{16}2,,,3,{8}3,{16}4,4qq1[16:5],
,,,,{8}8,{16}7,6,5<3[16:5],,,8,{8}8,{16}4x,4xpp7[4:1],
,,{8}8,1,2<6[16:3],3h[4:1],{32},,,,,,,,3,4,{16}5,
{8}8V64b[8:1]/7v4b[8:1],1/6,{4}7/8,{8}5/2>5[8:1],7,1/2,7>1v6[16:3],
4,7/4,2,1,5/2-5[32:3],6h[8:1],2,7-3[8:1],
5,7/5-1[8:1],,3x/5,4qq4[4:1],6,4pp4[4:1],8h[4:1],
,,7,6/Cfh[8:5],,,,,,,,2,
8b/1bV35[16:3],7,{16}6,7,{8}8h[8:1],
,6V82[16:3],4,2,{16}3,4,{8}5>1pp4[2:1],,6,
,7,8,1x,2h[16:3],{16}4,4h[16:3],,,{8}5-1[8:1],
6,7V13[16:3],6,5,4h[4:1],,,2,
8-4b[16:1]/7-3b[16:1],{16}2/5,1/6,{8}8bx/7bx,2x/6x,8b/7bV13[16:3],3,{16}4,5,{8}6>1[16:3],
,1,7,5,{16}4/2<7[8:1],3/5,{8}4/6b>3b[8:1],,,8x-3b[8:1],
4x<7b[8:1],8b,4b,{16}1,2/8,{8}3bh[8:1]/1bh[8:1],,4/5,
{16}6/3,5/2,{8}4bh[8:1]/1bh[8:1],,2,3/6,{16}6,5qq8[0.886##0.9977],,3,{8}4pp1b[0.3628##1.0047],
{2}4b/5b,{4}7<4[8:1],2<7[8:1],
5>2[8:1],{16}8<5[8:1],,,1x-4-7-2-5-8b[2:1],{2}1h[4:3],
{16},,,,,,2/7,3/6,5/4<8[8:1],,,3,{8}4,2,
4-2-8[16:3],{16}8,8-6-4[16:3],,4x,{8}4x>8[16:3]*<8[16:3],{16},,,,,,,5,
{8}2/4h[8:1],{16}3,6/5h[8:1],,7,{8}8b/1b,{4}6x/2x>2[2:1],B6/B5,
B2/B3,{8}B7/B8,3,{16}4h[8:1]/2h[8:1],,,7h[8:1]/5h[8:1],,,{8}4/3,
{4}7/5b<8b[32:3],2/5b>2b[32:3],8/5bqq8[2:1],1,
{8}1h[4:1],,,7,4/6,{16}5,6q2[8:1],,3,,6,
{8}3,{16}4,3h[16:3],,6,{8}5h[8:1],{48}2,3-8[8:5],{24}4,{4},,,{64},,,{96},{64}
,
