&title=ザ・ライブ革命でSHOW!
&artist=765PRO ALLSTARS
&first=2.929999
&des=Chihare vs bbben + Ragna vs Hisui
&lv_5=13
&inote_5=(162){1},
||CHIHARE
P
+
BBBEN
(njml
P)
||pre
{4}6/3,2h[8:1]/5h[8:1],4h[8:1]/7h[8:1],5pp5[4:1],
3,4qq4[4:1],6,,
2h[4:3]/6p6pp5b[2:1],,,,
{8}4-1[8:1]/5-8[8:1],4/5,{4},2-5[8:1]/7-4[8:1],E5f[128:1],
||intro
{8}6x-8[8:1],5,4-2[8:1],5,6-1[8:1],5,4-1[8:1],5,
6,7,1/8,2,3,4,5/6,7,
1-3[8:1],8,7-5[8:1],8,1-4[8:1],8,7-4[8:1],8,
3^8[8:1],3,4,,6^1[8:1],6,5,,
3h[8:6],,7p6>7[2:1],7,,,,,
4,3,8/7,,5,6,2/1,,
8h[8:1]/6h[8:1],,,1h[8:1]/3h[8:1],,,7h[8:1]/2h[8:1],,,
{16}3h[4:1],,,,1h[8:1],,7h[16:3],,,6h[16:3],,,5qq5[16:3]*pp5[16:3],,
||Part
A1
{8}5,,,,6xpp5[4:1],,3,,
4,4qq4[4:1],,4-8[8:1]*-7[8:1],,,,,
7h[8:1]/1h[8:1],,3/5,,8-5[8:1],,4,,
3h[4:3],5pp6[4:1],,,,,,,
6-2[8:1]/4-8[8:1],,,,7h[8:1]/1h[8:1],,2h[8:1]/8h[8:1],,
4h[8:3]/5h[8:3],,,,1-6[8:1]/8-3[8:1],,E1,,
5-1[8:1],,4,,2q1q7q6[4:3],,,,
{4},,E2f,,
||Part
A2
{8}4,7h[8:1],5,6h[8:1],4,5-8[8:1],3,5,
4-1[8:1],6,4,5^8[8:1],,5^2[8:1]/B2/B3,,5/B7/B8,
,7,62,3,4v6[8:1],6V41-6[4:1]*V41-6[4:1],,,
,,4,5^8[8:1],,5^2[8:1]/B2/B3,,5/B7/B8,
,5^8[8:1],4,3,2^5[8:1],1,8,7,
6q4>6[2:1],,4,4h[8:2],,,,,
||ahoge
5qq3[8:1],,5/7,,4pp6[8:1],,4/2,,
3-1[8:1],,3/4-8[8:1]*-8[8:1],,4/5-7b[8:1],,5,,
||Part
B
{8}
2pp5[4:1],,,6,6-1[8:1],,6,,
2pp5[4:1],,,6,6-1[8:1],,6,,
5h[8:1],8,6h[8:1],8,3h[8:1],1,4h[8:1],1,
2s6[4:1]/3z7[4:1],,,,,,85,,
7qq4[4:1],,,3,3-8[8:1],,3,,
7qq4[4:1],,,3,3-8[8:1],,3,,
4bx-8[16:1],,5,6bx-1[16:1],,3,2bx-6[16:1],,4,5bx-2[16:1]*-1[16:1],,
5x-8[16:1]`E2f,,,,,
{16}8,,5,7,,4,6,,1,,4,2,,5,3,,
8h[16:1],,5,7h[8:1],,5,6,,1h[15:1],,4,2h[8:1],,4,3,,
8,5,7,5,6,5,6,,1,4,2,4,3,4,3,,
{8}5/6,7,3/4,2,4/6,8,3/5,1,
{4}1pp6[2:1]/8qq3[2:1],{48}1bx/8bx,E1,E2`E8,B7`B2`C1f,B6`B3,B5`B4,{8}E5,,,,,
||Part
C1
{16}3,,6-1[8:1],4,,4,6,,5^2[8:1],,8b,,8b,,,,
5,,3-8[8:1],4,,4,3,,4^7[8:1],,1b,,1b,,,,
3-1[8:1],,,4,,,5,,6-8[8:1],,4,,3,,2,,
{48}2/8b,3x,4x,5x,,,{8},{48}1b/7,6x,5x,4x,,,{8},{48}1bx/8bx,2x/7x,3x/6x,4x-8[16:1]/5x-1[16:1],,,{8},C1f,,
{16}3,,6^1[8:1],4,,4,6,,5-2[8:1],,8b,,8b,,,,
5,,3^8[8:1],4,,4,3,,4-7[8:1],,1b,,1b,,,,
3-8[8:1]/4-8[8:1],,25,,34,,,,6-1[8:1]/5-1[8:1],,47,,56,,,,
{32}
1x,2x,3x,4x,5x,6x,7x,8x,
1x,2x,3x,4x,5x,6x,7x,8x,
1xw5[8:1],2x,3x,4x,5x,6x,7x,8x,1bx,,,,,,,,
||C2
{16}
8,,3,4,2,,5-1[8:1],,5-7[8:1],,,,,,,,
1,,6,5,7,,4-2[8:1],,4-8[8:1],,,,,,,,
{32}2hx[8:1]/6x-1[8:1],5x,4x,,,,,,2,,,,2,,,,
7hx[8:1]/3x-8[8:1],4x,5x,,,,,,
{16}
6x-2[8:1],,6,,3-7[8:1],,,,8h[4:1],,,,
{48}
1bx,2x/7x,3x/6x,4x-8[16:1]/5x-1[16:1],,,{8},C1f,,
{32}
1x/3,8x,7x,6x,,,,,1x<3[8:2],8x,7x,6x,,,,,{8},2b,2b,,
{32}
8x/6,1x,2x,3x,,,,,8x>6[8:2],1x,2x,3x,,,,,{8},7b,7b,,
{32}
2x,3x,4x,5x,6x,7x,8x,1x,
2x,3x,4x,5x,6x,7x,8x,1x,
2x,3x,4x,5x,6x,7x,8x,1x,
2x,3x,4x,5x,6x,7x,8x,1x,
{4}2hx[4:3]/6w2[40.5#32:1],,,6?w2b[8:1],
{48}A6f,B6f,C1f,B2f,A2f,,{8},,,,,,,
||Intermezzo
{16}6/2h[16:3],,,4,3,,45,,5/6h[16:3],,,8,7,,16,,
{32}
2x,3x,4x,5x,6x,7x,8x,1x,2x,3x,4x,5x,6x,7x,8x,1x,
{16}
2x-7[8:1]/6x,,,,2x/4x,,,,
5pp5[4:1],,,1,5pp2[16:5],,1,,1h[16:3],,,,1,,1,,
E4,E6,B3,B6,B2,B7,E2,E8,
1xw5b[8:1],,,,{64}
1b/A1f,B1,C,B7,B3,B6/B4,B5,A6/A4,
{8}
A5/D6/D5,
{4}
3x-1[8:1],5bx-8[8:1],4x-1[8:1],6bx-8[8:1],
4x-8[8:1],6bx-1[8:1],3x-1[8:1],5bx,
B6/E7/A6/2x,E1/B8/A8/4bx,B2/E3/A2/6x,5bxpp5b[4:1]*qq3[8:1],
5x,4bxqq4b[4:1]*pp6[8:1],4x,5bxpp2[8:3],
5x/4xv2b[8:1],4bx,4xqq7[8:3],4x/5bxv7b[8:1],
5x,B7/E7/A7/3bx,E5/B5/A5/1x,B3/E3/A3/7bx,
4xV68[4:1]/6,8bxV24b[4:1],4xV68[4:1],8bxV24-6pp1b[4:3],
4x-6pp2[2:1],,Cf,,
||Part
C2
{16}
7pp7<8[2:1],,,1,7,,2,,3bxh[4:1],,,,A8f,,,,
2qq2>1[2:1],,,8,2,,7,,6bxh[4:1],,,,A1f,,,,
3/4^7[8:1],,,2,4,,3,,5^2[8:1]/6,,,7,5,,6,,
{32}
2x/7x,D3/D7,A3/A6,D4/D6,A4/A5,,,,2x/7x,D3/D7,A3/A6,D4/D6,A4/A5,,,,
{4}
4x-1[8:1]b/5x-8[8:1]b,A4/A5/D5f,
{16}
7p7<8[2:1]b,,,4,7,,3,,2xbh[4:1],,,,
{48}
A8f,D8,A7,D7,A6,D6,A5,,,,,,
{16}
2q2>1[2:1]b,,,5,2,,6,,7xbh[4:1],,,,
{48}
A1f,D2,A2,D3,A3,D4,A4,,,,,,
{8}
8x>4[8:1]*<4[8:1],,,,5/6,7,3/8,2,
{1}
1xh[2:1]/Cfh[1:1],
{48}
,B3/B4/B7/B8,E4/E8,A3/A4/A7/A8/D4/D8,,,
{8}
,,,,,,,
{16}
4b-8[8:1]/8,,,7,4,,6,,1/5b-1[8:1],,,2,5,,3,,
{32}
4x/8x-4-8[4:1],7x,6x,5x,4x,3x,2x,1x,8xw4[8:1],,,,,,,,
{8}
,,3x/7x,2x/6x,
{4}
1xh[4:1]/5xpp5pp2[2:1],,3,3,
{16}
4,5,4,5,3,6,2,7,1x^4[8:1]b/8x^5[8:1]b,,,,
{48}
A8/A1/D1f,D8/D2,A7/A2,D7/D3,A6/A3,D6/D4,A5/A4/D5,,,,,,
{4}
,,,
E
&inote_7=(162){1},
||pre
{4}6/3,2h[8:1]/5h[8:1],4h[8:1]/7h[8:1],5pp5[4:1],
3,4qq4[4:1],5,6,
2h[4:3]/6p6pp5b[2:1],,,,
{8}4-1[8:1]/5-8[8:1],4/5,{4},2-5[8:1]/7-4[8:1],E5f[128:1],
||intro
{8}6x-8[8:1],5,4-2[8:1],5,6-1[8:1],5,4-1[8:1],5,
6,7,1/8,2,3,4,5/6,7,
1-3[8:1],8,7-5[8:1],8,1-4[8:1],8,7-4[8:1],8,
3^8[8:1],3,4,,6^1[8:1],6,5,,
3h[8:6],,7p6>7[8:3],7,,,,,
45,45,8/7,,45,45,2/1,,
A7/A8/E8h[8:1],,,A2/A1/E2h[8:1],,,E7h[8:1]/B2h[8:1],,,
{16}3h[4:1],,,,1h[8:1],,7h[16:3],,,6h[16:3],,,5qq5[16:3]*pp5[16:3],,
||Part
A1
{8}5,,,,6pp5[4:1],,3,,
4x,4xqq4[4:1],,4-8[8:1]*-7[8:1],,,,,
7h[8:1]/1h[8:1],,3/5,,8-5[8:1],,4,,
3h[4:3],5pp6[4:1],,,,,,,
6-2[8:1]/4-8[8:1],,,,7h[8:1]/1h[8:1],,2h[8:1]/8h[8:1],,
,,,,1-6[8:1]/8-3[8:1],,E1,,
5-1[8:1],,4,,3>7[4:1],,7p8p2p3[4:3],,
{4},,E8f,,
||Part
A2
{8}4,7h[8:1],5,6h[8:1],4,5-8[8:1],3,5,
4-1[8:1],6,4,5^8[8:1],,5^2[8:1]/B2/B3,,5/B7/B8,
,7,2/8,5,4/6,1,3V14[8:2]/5V74[8:2],35,
,,,5^8[8:1],,5^2[8:1]/B2/B3,,5/B7/B8,
,5^8[8:1],4,3,2^5[8:1],1,8,7,
6q4>6[2:1],,4,4h[8:3],,,,,
5-1b[8:1],,5/7,,8-4b[8:1],,2/8,,
3-1[8:1],,3/4-8[8:1]*-8[8:1],,4/5-7b[8:1],,5,,
||Part
B
{8}5qq2[4:1],,,6,6-1[8:1],,6,,
5qq2[4:1],,,6,6-1[8:1],,6,,
5h[8:1],8,6h[8:1],8,3h[8:1],1,4h[8:1],1,
3v6[8:1],3,5-1[8:1],5,4xV68[4:1],,8xV24[4:1],,
5-8-6[4:1],,5-2-4[4:1],,5,,1v6[8:1],,
1x-4[8:1]/2-7[8:1],,,,5,7,4/6,5,
4x-8[16:1],,5,6x-1[16:1],,3,2x-6[16:1],,4,5x-2[16:1]*-1[16:1],,
5x-8[16:1]`E2f,,,,,
{16}8,,5,7,,4,6,,1,,4,2,,5,3,,
8h[16:1],,5,7h[8:1],,5,6,,1h[15:1],,4,2h[8:1],,4,3,,
8,5,7,5,6,5,6,,1,4,2,4,3,4,3,,
{8}5/6,7,3/4,2,4/6,8,3/5,1,
{4}1pp6[2:1]/8qq3[2:1],{48}1bx/8bx,E1,E2`E8,B7`B2`C1f,B6`B3,B5`B4,{8}E5,,,,,
||Part
C1
{16}3,,6-1[8:1],4,,4,6,,5^2[8:1],,8b,,8b,,,,
5,,3-8[8:1],4,,4,3,,4^7[8:1],,1b,,1b,,,,
3-1[8:1],,,4,,,5,,6-8[8:1],,4,,3,,2,,
{48}2/8b,3x,4x,5x,,,{8},{48}1b/7,6x,5x,4x,,,{8},{48}1x/8x,2x/7x,3x/6x,4x-8[16:1]/5x-1[16:1],,,{8},C1f,,
{16}3,,6^1[8:1],4,,4,6,,5-2[8:1],,8b,,8b,,,,
5,,3^8[8:1],4,,4,3,,4-7[8:1],,1b,,1b,,,,
3-8[8:1]/4-8[8:1],,25,,34,,,,6-1[8:1]/5-1[8:1],,47,,56,,,,
{32}
1x/5x,2x,3x,4x,5x,6x,7x,8x,
1x/6x,2x,3x,4x,5x,6x,7x,8x,
1xw5[8:1]/7x,2x,3x,4x,5x,6x,7x,8x,1bx,,,,,,,,
||C2
{16}
8,,3,4,2,,5-1[8:1],,5-7[8:1],,,,,,,,
1,,6,5,7,,4-6[8:1],,4-8[8:1],,,,,,,,
{32}7h[8:1]/6x-1[8:1],5x,4x,,,,,,,,,,,,,,
2h[8:1]/3x-8[8:1],4x,5x,,,,,,
{16}
6x-2[8:1],,,,3-7[8:1],,,,6,,,,
{48}
1x/8x,2x/7x,3x/6x,4x-8[16:1]/5x-1[16:1],,,{8},C1f,,
{32}
1x/3h[4:1],8x,7x,6x,,,,,1x<3[8:2],8x,7x,6xh[32:9],,,,,{8},8b,8b,,
{32}
8x/6h[4:1],1x,2x,3x,,,,,8x>6[8:2],1x,2x,3xh[32:9],,,,,{8},1b,1b,,
{32}
2x,3x,4x,5x,6x,7x,8x,1x,
2x,3x,4x,5x,6x,7x,8x,1x,
2x,3x,4x,5x,6x,7x,8x,1x,
2x,3x,4x,5x,6x,7x,8x,1x,
{4}2hx[4:3]/6bw2[40.5#32:1],,,6?w2b[8:1],
{48}A6f,B6f,C1f,B2f,A2f,,{8},,,,,,,
||Intermezzo
{16}6/2h[16:3],,,4,3,,45,,5/6h[16:3],,,8,7,,16,,
{32}
2x,3x,4x,5x,6x,7x,8x,1x,2x,3x,4x,5x,6x,7x,8x,1x,
{16}
2x-7[8:1]/6x,,,,2x/4x,,,,
5pp5[4:1],,,1,5pp2[16:5],,1,,1h[16:3],,,,1,,1,,
E4,E6,B3,B6,B2,B7,E2,E8,
1xw5b[8:1],,,,{64}
1b/A1f,B1,C,B7,B3,B6/B4,B5,A6/A4,
{8}
A5/D6/D5,
{4}
3x-1[8:1],5bx-8[8:1],4x-1[8:1],6bx-8[8:1],
4x-8[8:1],6bx-1[8:1],3x-1[8:1],5bx,
B6/E7/A6/2x,E1/B8/A8/4bx,B2/E3/A2/6x,5bxpp5b[4:1]*qq3[8:1],
5x,4bxqq4b[4:1]*pp6[8:1],4x,5bxpp2[8:3],
5x/4xv2b[8:1],4bx,4xqq7[8:3],4x/5bxv7b[8:1],
5x,B7/E7/A7/3bx,E5/B5/A5/1x,B3/E3/A3/7bx,
4xV68[4:1]/6,8bxV24b[4:1],4xV68[4:1],8bxV24-6pp1b[4:3],
4x-6pp2[2:1],,Cf,,
||Part
C2
{16}
7pp7<8[2:1],,,1,7,,2,,3bxh[4:1],,,,A8f,,,,
2qq2>1[2:1],,,8,2,,7,,6bxh[4:1],,,,A1f,,,,
3/4^7[8:1],,,2,4,,3,,5^2[8:1]/6,,,7,5,,6,,
{32}
2x/7x,D3/D7,A3/A6,D4/D6,A4/A5,,,,2x/7x,D3/D7,A3/A6,D4/D6,A4/A5,,,,
{4}
4x-1[8:1]b/5x-8[8:1]b,A4/A5/D5f,
{16}
7p7<8[2:1]b,,,4,7,,3,,2xbh[4:1],,,,
{48}
A8f,D8,A7,D7,A6,D6,A5,,,,,,
{16}
2q2>1[2:1]b,,,5,2,,6,,7xbh[4:1],,,,
{48}
A1f,D2,A2,D3,A3,D4,A4,,,,,,
{8}
8x>4[8:1]*<4[8:1],,,,5/6,7,3/8,2,
{1}
1xh[2:1]/Cfh[1:1],
{48}
,B3/B4/B7/B8,E4/E8,A3/A4/A7/A8/D4/D8,,,
{8}
,,,,,,,
{16}
4b-8[8:1]/8,,,7,4,,6,,1/5b-1[8:1],,,2,5,,3,,
{32}
4x/8x-4-8[4:1],7x,6x,5x,4x,3x,2x,1x,8xw4[8:1],,,,,,,,
{8}
,,3x/7x,2x/6x,
{4}
1xh[4:1]/5xpp5pp2[2:1],,3,3,
{16}
4,5,4,5,3,6,2,7,1x^4[8:1]b/8x^5[8:1]b,,,,
{48}
A8/A1/D1f,D8/D2,A7/A2,D7/D3,A6/A3,D6/D4,A5/A4/D5,,,,,,
{4}
,,,
E
