&title=Labyrinth in Kowloon: Walled World
&artist=かめりあ
&first=2.38
&des=Drelxyse:Anarchic
&lv_5=14
&inote_5=(190)
{16}B3,B2,B1,,,,,,B7,B6,B5,,
{8},,E4,E3,E2/E8,E7,E6,E5,,,
{16}B1,B2,E3,,
{8},,E1,E8,E7,E6/E4,E3,Ch[8:2],,,
{16}B5,B6,E7,,
{4},
{16}3x,2x,1x,,,,,,7x,6x,5x,,
{8},,2x,3x,4x/5x,8x,7x,6x,,,
{16}3x,4x,3x,,,,,,6x,5x,6x,,
{8}7x,8x,
{8}1xpp3^2^8v3[2:5]/5xpp7^6^4v7b[2:5],1x/5x,,,
{2},,,,
{16},,,,,B2,B1,E1,E7,B6,B5,E5,A8,A1,A2,Ch[8:3],
{4},,
{8},3h[8:3],4,5,6,4h[8:2],5,6-4[8:1],,2h[8:4],,,,4h[8:3],,,
{8}2,2h[8:3],4,5,6,3-5[8:1],5,6,,
{16}4x,6x,4,6,3,7,2,8,
{32}1,2,3,4,5,6,7,8,1b,,,,
{16},,2b/Cf,,,,,,4bh[8:1]/7bh[8:1],,,,,,1bw5[2:1]/5,
{1},
{16},2/6,,5b-7-1[4:1],,,,,,3b-5[8:1],,,,,,2b<4[4:3],,
{2},
{16}E4,E3,E2,E1,E8,E7,E6,,
{16},,3b/7b,,,,,,4b/8b,,,,,,1bv3[8:1]/5bv7[8:1],,
{8},,,,,,5-7-4-8[4:1],3-1b[8:1],5,,
{8},2bx-6[8:1],6-3-1[4:1],2b,7-5[8:1],7b>7b[1:1],
{1},
{8},4h[8:1],,5h[8:1],,
{16}3,4,2h[8:1],,6,5,7h[8:1],,
{8}2-4[8:1],4-1[8:1],290,,
{16}7,6,5h[8:1],,1,2,3h[8:1],,
{8}6h[8:1],,2h[8:1],,
{16}8,1,8,,3,4,3,,
{8}6-4[8:1],4-2[8:1],6,,
{16}D2,A1,D1,A8,D8,A7,D7,,
{8}2/5,2/5,3/4,3/4,4q8[8:1]/1,1,2,2,
{8}7/4,7/4,6/5,6/5,5p1[8:1]/8,8,7,7,
{16}2,6,3,7,4,8,5,1,4,8,3,7,2,6,1,5,
{2}2hx[4:1]/6hx[4:1],
{16}Chf[8:4],,,,8-4[8:1],,,,8b,,,,,,,,
{8}1bh[8:1]/5bh[8:1],
{16},,,6,5,6,3,4,2,6,5,7,3,5,1,7,4,6,2,8,3,5,
{8}1h[8:2],,E8/B8/B7,E6/B5/E5,B2/E3/B3,
{16},7x,7x,
{32}6hx[8:1]/A4,D4,A3,D3,A2,D2,A1,D1,A8,,,,,,
{8}7,2b/5b,,1/6,3bpp5[16:3]/4b,,
{16}E1,B8,B7,E7,E5,B4,B3,E3,
{16}6bx,6,7x/8x,,1,6,1,4,3,4,2,6,2,7,8,7,2bx,2,
{36}C,,,,,,,
{18}4,
{18}5b,,4,7b,,4,1b,,4,
{16}5b,,,
{16},3-5b[8:1],3,7^8-6-1q5[4:3],
{1},
{16},,,,,
{16}E7,B6,B5,E5,E3,B2,B1,E1,
{16},6x,7,8b/5b,,,,4,3,2b/5b,,,,1,8,2b/7b,,,2,6,3b/7b,3b/7b,,,,,
{16}2>6[8:1],,6>2[8:1],,,,8bx-2-4v6[4:1],8bx,,,,,
{8},,,7-1[8:1],3-5[8:1],7,3,,
{16}E8,B8,B1,E2,E4,B4,B5,E6,
{16}2,4,1,3,8,2b/7b,,,1,6,3b/5b,,,4,4x,3b/5b,,,1,7,8,,
{32}6h[8:1],,1x,2,3h[4:1],,,,
{4},
{32}4h[8:1],,5x,6,7h[4:1],,,,
{4},
{32}8h[8:1],,6x,5,4,3h[4:1],,,
{4},
{32}2h[8:1],,1x,8,7,6,5h[4:1],,
{4},
{32}4h[1:1],,3,2x,1,8,7,6,5x,3,2,1,8h[8:5],,,,
{4},,,
{24}2,8,2,8,2,8,
{16}1-5[8:1],1,1,1,
{32}1>8[8:25]b,B1,C,B5f,
{16},,,,8b,,
{1},,,
{8},,,,,,,5h[4:3],6,7,8,1,2,3,
{16},4x^6[8:1],,,
{8},,
{16},8x^2[8:1],,,
{8},,
{8},1h[4:3],2,3,4,5,6,7-1-3-5[4:3],
{8},,,,,B6/B7/E7,,,
{8},3v8-6[1:1],,,,,,8-6-4-2-8[1:1],,5x,,,,2-8q4[4:3],,,,7^8q5b[4:1],,,,,,3pp7[4:3]/7pp3[4:3],,3/7,,,,,,,
{8},6-4-1-7[1:1],,,,,,1-7-5-3[4:3],,2v5b[8:1],,,,5xp1^4[4:3],,,,8^5b[4:1],,8,,,,7V53[4:1]/8h[4:1],,,1x,1x,1x,
{12}2x/5,4,3,2b/5b,4,3,
{8}6V82[4:1]/2x,,5,4,3,,
{8}6^3[4:1],,3/6,1,8,,2h[4:1],,7,6,4-6[8:1],2-4[8:1],1,,,,8/6,,7^2[4:1],
{8}6,5,4,
{16}3h[8:1],,,,5h[8:1],,,,
{4}6/2V86[4:1],,,
{16}6v1[8:1],,,,
{4}2b<3b[2:1],,,7b,
{8},
{12}1b,,7b,,5b,3b/7b,,,4b,,2b,,3b,8b/5b,,,4b/7b,,
{8}2b/6b,,,
{8}2/7,5h[4:1],,4h[4:1],,6,
{16}2,,4,4,3,,1,,7,,5,5,3-5[8:1],3,5x-1[8:1],,,,
{8},6,6,7,7,8/3x,
{16}2,1,2,,3/8^5[8:1],4,5,,,,,,
{24}3,4,3,4,,,8,7,8,7,,,
{8}1,
{16}2/6,,,4/5,,,1V75[4:1]/3,,,8/2,,,
{8}B2,E3,
{16}7/3x,,,5/4,,,8V24[4:1]/6,,,1/7,,,
{8}6x,6x,
{16}7,8,8,6,1,1,5,3,3,4-7[8:1],4-1[8:1],4,,,,,8hx[16:3],,
{8},
{32}7b,6,5,4,3/8b,7,6,5,4,3,2,1,
{8},,,
{16}2,2,,4,4,,6,6,,8V24[8:1]*^1-5[8:1],8,,,,,,
{16}7x,7,,5,5,,3,3,,1-6-2[8:1]*-6-4[8:1],1,,,,,,
{16}3x,3,,1,1,,8,8,,,
{16}7/4,6,5,7/4,
{16}8,1,2,3,4b/E6,E7,E8,A8,
{16}3,1,3,1,4,8,4,8,
{8}1,
{16}2/5,,3,4,3,
{32}5,6,7,,
{16},
{16}3/8,,1,2,1,
{32}3,4,5,,
{16},6x/7x,,8,3,5,
{32}1,2,3,,
{16},4x/6x,,5,2,4,
{32}1,8,7,,
{16},
{16}4^1[8:1],5,6,7,8/4,,,,
{16}8^5[8:1],1,2,3,4/8,,,,
{16}3,3,7,7,
{32}4,5,6,,8,1,2,,
{16}5,5,1,1,
{32}4,3,2,,8,7,6,5,
{1}4bhx[4:7]/8hx[1:1],
{4},E8,E6,E2,
{8}1/5,1,6/2,6,37,37,48,4/8,
{24}8,7,6,5,4b,3,2,1,8b/4b,7/3,6/2,5h[24:5]/1,8b-4-2[4:1],,,,
{6}8b,,
{8}5,6,1,2,3^1[8:1]/7^5[8:1],8/4,,,
{8}8,8/4,5,1/5,
{32}6,7,8,,
{16}2,1,2,,
{32}3,4,5,,
{8}4/6,3/7,8^5[8:1],4,
{32}8b/3b,2,1,,
{8},
{32}2q6[8:1],3,4,5,6x-1[8:1]*-8[8:1],,,,
{8},,,
{16}2,6,2,6,3,7,3,7,
{8},1-7[16:1]/7,
{16}2,2,,,
{16}4^1[8:1],6x,3,5h[16:3],,,,,
{8},4-6[16:1],
{16}2,2,,,
{16}1^4[8:1],7x,8,6h[16:3],
{8},,,
{16}7/3,4,5,4,
{8}8h[16:1],
{16}6,6,
{8}2h[16:1],
{16}4,4,
{8}6b-1-7-5[4:1],5b,B4,B3,
{24}2,1,8,7,,,5x,4,3,2,1,8,
{16}7-5[8:1]/E3,B2,B1,E1,
{8}7,,
{8}2/7^2[8:1],
{24}2,3,4,
{8}5V31[4:1],,7-5[8:1],8,
{8}7,,4/1^4[8:1],
{24}4,5,6,
{8}7V13[4:1],,5x,5x,
{8}6-3[8:1],8,7,6s,2/5,
{16}3,4,3,,
{24}2b-5[8:1]/5b,4/1,3/8h[6:1],
{8},,,
{16}7,4,7,4,1,6,1,6,
{8}3,
{16}5,4,5,6,5h[8:1],,
{24}7b-2[8:1],8,1,
{8}2v5[8:1],,,,
{16}3,4,3,2,3h[8:1],,
{24}1b-3[8:1],8,7,
{8}6-4[8:1],,,,
{8}8-3[8:1],3,,8-5[8:1],5,4x-8[8:1],,Ch[16:1],
{12},2b/B6f,,7b/B3f,,5b/A1/A2/D2f,,4b/A7/A8/D8f,,,
{24},
{16}3/5,2/5,1h[8:3]/5x,,
{4},
{16}3>8[8:1],4,5h[8:3],,
{4},
{8}6x<1-5[2:1],7,8,1,2,3h[8:1],,,
{16}2/6,1/6,8h[16:5]/6x,,
{4},
{16}4/1x,5/2,6/3,,2,,4,,
{8}8,1b/6b,1x/6x,
{12}2-6[8:1]/5,4,3,
{8}2/5,,,
{16}7/8^2[8:1],7,7,,
{4},
{16}3/4-7[8:1],3,3,,
{4},
{8}8/4-2[8:1],6/2-5[8:1],4,1-6-8[4:1],1x,1x,,,
{16}4,3,2-8[8:1]/6,,
{4},
{16}5,4,3-6-1-5[8:3]/7,,8,,1,,2<2<7[4:3],,
{1},
{8},5b-7b[8:1],7b,,
{16}1b,,,2b/6b,,,4b/5b,,,8b/1b-6-2b[4:1],,,4b,,,7b,,,3b-8b[8:1],,,3bh[8:1],,
{8},,5b/7b,5b/3b,,
{16}1b,,,2b/6b,,,4b/5b,,,8b/1b-5-2b[4:1],,,4b,,,7b,,,6b/4b,,,3b/5b,,
{8}2b/Cf,,,4hx[8:1]/7hx[8:1],,,1xw5[2:1]/5x,,
{6},,,,,2/6,
{8}5x-7-1[4:1],,,3x-5[8:1],,,2x<4[8:5],,
{8},,,
{16}3,2,1,8,7,6,5x,4x,3,2,
{8}1b/5bv7[8:1],,,2bv8[8:1],,,3bv5-7[4:1],,
{8},,,,,4-2-5-1[4:1],6-8b[8:1],4,6x,
{8},3bx-6[8:1],6-4-2[4:1],3b,8-6[8:1],8bw4b[2:1],
{1},
{8},2/6,3,4/5,7,1^4[8:1],1,8,7,6-8[8:1],6,3,
{16}2,1,2q6[8:1],,
{8}3/7,2,
{8},8,7/4,1,2/5,6^1[8:1],6,5,4,3-5[8:1],3,7x,
{32}E8,A8,D1,A1,D2,A2,D3,A3,
{32}D4,A4,D5,A5,D6/1x,A6,D7/2x,A7,
{16}3x,,4b/8b,,2,5,
{16}2,,6xv3[8:1]/1x,,
{32}2x/8h[8:1],3,4,5,
{8}6,6x,5h[8:1],,5-7[8:1],
{16}1,2,3,,
{8},5hx[8:3]/C,B2,1hx[8:1],,,
{24}8b,7,6,1b,2,3,4b,5,6,7b/3b>6q3^5[1:2],
{24}8/4,1/5,6/2,,,
{4}Ch[16:1]f,,,
{1},,
E
