&title=NULL APOPHENIA
&artist=N²
&first=0
&des=Vive vs MrS《APOPHÄNIE》
&lv_5=14+
&inote_5=(177)
{1},
{8}1,2,3,4,
{2}5>1[2:1],
{4},
{8}6,7,8<4[2:1],,,,
{1}3p1[1:1],
{2},1h[2:1]/8,
{8}8,7,6,5,
{2}4<8[2:1],
{8},,,2z6[8:11],,,
{1}7h[4:5],
{2},
{8},8V62[4:3],,,2,3,
{2}4h[8:3],
{4},4,3V15[4:3],,,,6,
{8},7,,,83,,
{1}8<3[4:3],2h[1:1],
{2}1h[2:1],8h[2:1],7qq4[2:3],,,,
{1}2p4[2:1]/7q5[2:1],3q1[2:1]/6p8[2:1],
{16}1-5[8:1]/8,,,8,,,7,,6-8[8:1],,,,,,,,1/8-4[8:1],,,1,,,2,,3-1[8:1],,,,,,,,
{4}2p5[4:1]/7q4[4:1],,,
{16}4,5,4,5,
{1}3p8[2:1]/6q1[2:1],2V47[2:1]/7V52[2:1],
{4}18,,36,45,
(102)
{8}4,
(107)
{8}4,
(111)
{8}5,
(117)
{8}5,
(123.5)
{8}3,
(133)
{8}3,6,6,
(150)
{8}2,2,2,
{16}2,
(175)
{8}7,7,7,7,
(204)
{8}1,1,1,
{16}1,,1,
(116)
{16}7,
(119)
{16}8,
(122)
{16}7,
(125)
{16}8,
(128)
{16}7,
(131)
{16}8,
(134)
{16}6,
(137)
{16}1,
(140)
{16}6,
(143)
{16}1,
(146)
{16}6,
(149)
{16}1,
(152)
{16}6,
(161)
{16}2,
(164.666)
{16}5,
(168.333)
{16}2,
(171.999)
{16}5,
(175.666)
{16}2,
(179.333)
{16}5,
(182.999)
{16}2,
(186.666)
{16}5,
(190.333)
{16}2,
(194)
{16}5,
(200)
{16}3,
(203.333)
{16}4,
(206.666)
{16}3,
(209.999)
{16}4,
(213.333)
{16}3,
(216.666)
{16}4,
(219.999)
{16}3,
(223.333)
{16}4,
(226.666)
{16}3,
(230)
{16}4,
(249)
{24}3,2,1,8,7,6,5,4,3,2,1,8,7,6,5,4,3,2,1,8,7,6,5,4,3,2,,
(177)
{1}8bV25[2:1]/1bV74[2:1],
{16}26,,,37,,
{24}5,4,6,
{16}5,
{2}7b-3[8:1]*-4[8:1],
{16}2-5[24:1],,,7-4[24:1],,,1-5[24:1],,8-4[24:1],,,3,,,3,,2/6h[16:3],,,1,1pp8[8:3],,7/2,,7-4[8:1],,,,,,,,
{16}25,,3-8[12:1],4,,5,3,,7b-4[24:1],,,7/1-5[24:1],,,18,,6-1[24:1],,,6/2-5[24:1],,,2/8,,8,,4,4,7,,5,6,
{16}4-2[24:1],,,5-7[24:1],,,1-5[24:1],,8-4[24:1],,,2,,,2,,3h[16:3]/7,,,6,6,,45,,37,,5-1[12:1],6,,7,5,,
{16}8,2,6,4,7b,3,5,4,6b,1,8,2b,6,3,5,4,7qq8[16:5],1,,1-4[8:1],7,,,,1,,,,37,,1,1,8b-4[24:1],,,8,3-8[24:1],,5,3,5,,,,17,,8,8,
{16}2-5[24:1],,,7-4[24:1],,,1-5[24:1],,6h[4:1],,,,,,,,62,,7-4[16:1],8,,1,7,,3b-8[24:1],,,3/5-1[24:1],,,54,,2-5[24:1],,,2/6-1[24:1],,,6/4,,4,,8,8,3,,1,2,
{16}8-6[24:1],,,1-3[24:1],,,5-1[24:1],,4-8[24:1],,,7,,,7,,2/6-1[24:1],2,,3-8[24:1],,,7-4[24:1],,,2,,3,5,3,6,4,
{16}7,7,,1,8-4[24:1],2,,3-8[24:1],3b,,,6,6,,1,1,7-4[12:1]/2-5[12:1],,,,
{4}72,
{8}3b/6b,
{16}1,8,1,8,1,,
{2}37,
{16}3,6,
{24}4,5,4,
{16}5,3,6,4,3V51[4:1]/5h[16:3],,,,,,
{4}7h[8:3],
{8},
{16}8,7,16,,
{16}2-5[24:1],,,8-4[24:1],,,3h[8:1],,,,7-3[8:1]/3,3,,1,7,,2b-8[12:1],,4,4,2-4[12:1],,6,,2-8[12:1],,7-4[12:1],7,2,,,,
{16}1h[16:3],,,8,1,,7-4[24:1]/2,,1-5[24:1],,,6h[16:3],,,,,2h[16:3]/6,,8,8h[16:3],,,1v2[8:1]*v8[8:1],,2-4[16:1]/8-6[16:1],,,,,,,,
{16}2b,1,4,5,3,8,2,6,2,7,4,5,5,6,3,8,1/7,,,25,2-8[12:1]/5-1[12:1],,3,4,25,,,,,,8,1,8h[16:3],,,2,8,,2-5[24:1]/7,,8-4[24:1],,,,,,,,3h[16:3]/7,,,6,4-8[8:1]/7-4[8:1],,5/8-3[8:1],,
{2},
{16}1h,8,3,6h,2,4,3h,7,1h,8,8,7h,5,6,5h,6,2h,4,3,6h,5,7,1h,8,1h,8,2,4h,3,3,2h,6,
{16}1b,,,8b,1,8,2b,7,4,5,3,6b,4,5,2b,4,3,8,5,6b,2,1,3,8,5b,7,3,5,4,6,3b,4,2,8,1,7,3b,5,4,7,5b,6,1,4b,3,5,4,,2b/6b,,7,8,7,,2-6[8:1],1,2,3,2,,,,8,8,
{2}1bw5[8:1],
{4},4>6[2:1],,,5>7[2:1],2<7[4:1],,3>5[2:1],8<5[4:1],,8<2[2:1],
{8},2,1,,8<2[2:1],,,,8,,7,,7<3[4:1],,3,2,1,,
{16}8,8,8,,
{4}17,
{8}1>7[2:1]/6,5,4<7[4:1],,,,
{2}8>6[2:1],
{4},
{8}8,1,2>6[4:1],,6,7,8,,
{16}1,1,1,,28,,,,
{8}37,,1>7[2:1]/4,5,6,7,8<2[2:1],,8,,1>7[2:1],,1,,8<2[2:1],8,,,1h[4:1],,,1,
{12}8<2[2:1],8,8,
{4}8,1h[8:3],,1<3[2:1],,8,7<1[2:1],7,,
{8}4,4>1[4:1],
{2}4,
{8}78,,78,6,78,5,71,,82,4,12,4,12,,34,2,34,1,35,,46,8,56,87,
{1}1s5[2:1]/2z6[2:1],
{8},,18,18,
{2}27,1s5[8:3]/8z4[8:3],,
{32}7b/8,6,5,4,
{16},1,1,,78,,6,5,7,,3b-8[24:1]/7,,,1b-5[24:1]/3,,,6/1b,,6,,
{2}37,
{8},
{32}2b/1,3,4,5,
{8},
{16}8/7b-4[24:1],,,7/2b-7[24:1],,,6,2,5h[8:1],,,5h[8:1]/1h[8:1],,,
{2}3h[8:1]/7h[8:1],
{4},
{8},
{16}8b-6[24:1],,,1-5[24:1],,,7-4[24:1],,3,3h[8:1],,,,,37,,6,5-1[24:1],,4,5,,2-5[32:1],,2,,8h[8:1],,4,,6,5,6,,7,7,1,8,2,6,3,5s1[16:3],4-8[8:1],,,5,4,,,,7/3p6[8:1],,
{4}6<4[2:1]/2,
{8},5h[8:3],,,,5,26,
{16}3,3,4h[8:1],,1p4[16:3],,,4p7[16:3],,,6h[16:3],,,,6,5,4,3,2,1,
{24}4,3,2,1,8,7,6,5,4,
{16}3/7-3[24:1],,,17,
{12},2,2,
{8}2,5-1[24:1],
{16},5/3-8[24:1],,,36,,,7-4[24:1],,,1/7,,,3,5h[8:3]/2h[8:3],,
{4},,
{16}5,6,47,,2,1,3/8h[8:1],,,2,2,,
{8}4-8[8:1]/7-4[8:1],4-6[8:1]/8-2[8:1],,,,37,
{16}2,1,2-5[24:1],,,2/7-3[24:1],,,7,4,4,,6,5,6-1[24:1],,,,6/3-7[24:1],,,3,,8,8,,16,,,,
{16}28,,,1,2>5[8:1],,83,,12,,,,71,,,8,7<4[8:1],,16,,87,,,,32,,,1,8,,7,8,7,,56,,34,,2-6[24:1],1,2,,2,,8-4[24:1],,8,,81,,2,3,2,,1,,8b,,2-5[24:1],1,,1,2,,7h[8:1],,,,7h[8:1]/8h[16:3],,,,7-4[24:1],,,7/8-3[24:1],,,8,5,5,,2,,,1h[4:1],2,,2-5[24:1],,,2/1-6[24:1],,,1,4,4bw8[8:3],,
{2},
{4},
{8},
{16}1,8,1,8,1,8,1,8,1,8,1,8,1,8,1,8,
{48}1b,2,3,4,,,,,,1b,2,3,4,,,,,,2b,3,4,5,,,
{16}8,8,8,,
{48}1/7b,6,5,4,,,,,,7b,6,5,4,,,,,,8b,7,6,5,,,
{16}1b,,1,8,
{48}1b,2,3,4,,,,,,2b,3,4,5,,,,,,3b,4,5,6,,,
{4}8b,
{48}8b,7,6,5,,,,,,7b,6,5,4,,,,,,6b,5,4,3,,,
{4}1b,
{48}1h[8:1]/7b,6,5,,,,,,,1h[8:1]/7b,6,5,,,,,,,1/6b,5,4,,,,
{4}1b,
{48}8h[8:1]/2b,3,4,,,,,,,8h[8:1]/2b,3,4,,,,,,,8/3b,4,5,,,,
{16}8b-4[16:1],,,,
{48}8/1b-5[16:1],,,,,,,,,6b-1[16:1]/1,,,,,,,,,
{16}6/2b-7[32:1]*-5[32:1],,2,,,,
{48}4b-8[16:1],,,,,,,,,7b-4[16:1]/4,,,,,,,,,7/3b-8[32:1]*-6[32:1],,,,,,
{4}3,
{16}1-5[24:1],,,
{32}8/1,7,6-2[16:1]*-1[16:1],,,,74,,,,
{4}6b,
{16}8-4[24:1],,,
{32}1/8,2,3-7[16:1]*-8[16:1],,,,25,,,,
{4}3b,
{16}1-5[16:1],,
{48},,,8,7,6,5/1-3[16:1],,,,,,7-4[16:1],,,,,,81,,,,,,
{16}7,2-8[16:1],2,,
{48},,,2-5[16:1]/7-4[16:1],6,5,,,,,,,
{4}27,
{16}8,1,8<5[12:1],,,
{48}1,2,3,8-4[12:1]/4,,,,,,
{8}3,48,,
{16}1>4[12:1],,,
{48}8,7,6,1-5[12:1]/5,,,,,,
{8}6,51,
{16}7,7-4[12:1],8,,,
{48}7/1-5[12:1],2,3,,,,,,,
{8}1>4[12:1]/8h[8:1],,
{16}1,8<2[16:5],8bp2[4:1],,
{2},
{8},
{4}1h[4:1],
{8},8-4[8:1],,8/2h[8:1],,,1s5[8:3],
{16},7h[16:3],,,,,,,,,37,,6,5,6z2[8:3],,,,,,3h[4:1],,,,,,,,2,1,2-6[8:3],,,,,,8h[8:1],,,,8h[8:3],,,,,,
{1}1>1[1:1],1>1[1:1],1>1[1:1],1>1[8:37]*>5[64:146]*>7[64:221]*>8[64:259],,,
E
