&title=六連星
&artist=taichi hiyama
&first=0
&des=哈哈.
&lv_5=13+
&inote_5=(142)
{1},
||intro
{16}
1xh[4:1],,E7,E6,E5,,2xh[4:1],,E7,E8,E1,,3,,8,,
{16}
4xh[4:1],,E8,E7,E6,,3,,4/2,,8/1,,7,7,2,,
{16}
8xh[4:1],,E3,E4,E5,,7xh[4:1],,E3,E2,E1,,6,,1,,
{16}
5xh[4:1],,E2,E3,E4,,6h[8:1],,4h[8:1],,5,4,6,3,7,2,
{16}
8xh[4:1],,{24}E3,B3,B4,{16}E5,,7xh[4:1],,{24}E3,B2,B1,{16}E1,,6,,2,,
{16}
5xh[4:1],,{24}E2,B2,B3,{16}E4,,6,,5/7,,8/1,,2,2,7,,
{16}
1xh[4:1],,{24}E7,B6,B5,{16}E5,,2xh[4:1],,{24}E7,B7,B8,{16}E1,,3,,7,,
{16}
4xh[4:1],,{24}E8,B7,B6,{16}E6,,3,,2b/1b,,,,7x/3x,,,,
||Ver1
{16}
3h[4:1],,,,4,,,2,5h[8:1],,6,,7h[8:1],,8,,
{16}
,,1,,2,,3h[4:1],,,,5,,4/6,,3/7,,
{16}
2h[4:1],,,,1,,,3,8,,{24}A2,A1,A8,A7,,,{16}5bh[2:1],,
{16}
,,,,,,,,,,2,,6,6,3,,
{16}
7h[4:1],,,,8,,,6,1h[8:1],,2,,3h[8:1],,4,,,,
{16}
5,,6,,7/4,,,,1,,2/8,,3/7,,
{16}
6h[4:1],,,,5,,,7,4/7,,3/5,,2/1,,{24}1bx/8bx,7x,6x,
{16}
5,,2,4,3h[8:1],,8,4,6h[8:1],,1,5,3,7,6,8,
||Ver2
{16}
2bh[4:1],,,,4,,,3,5h[8:1],,6h[8:1],,7h[8:1],,8h[4:1],,
{16}
,,7,,2/6,,3/5,,,,4,5,3,6,2,7,
{16}
1bh[4:1],,,,8,,,2,7,,{24}A3,A4,A5,A6,,,{16}8bh[2:1],,
{16}
,,,,,,1x,2,7x,6,2x,3,6x,5,3x,4,
{16}
7bh[4:1],,,,5,,,6,4h[8:1],,3h[8:1],,2h[8:1],,1h[4:1],,
{16}
,,2x,,3x/8x,,7bh[4:1],,,,8,7,1x/6x,,2x/5x,,
{16}
3/4,,3,,3/1,,3,,3/8,,3,,3/6h[4:1],,,,
{16}
5,,4/7,,4h[4:1]/7,,,,1b,,,7x/8x,,2,3,4,
{16}
5b,,,1x/8x,,,2x/4x,,3xh[2:1]/6x,,,1,8,7,6,5,
||Pre1
{4}
4b,2q5[2:1],,,
{16}
,,,,7p4[2:1],,B1,B2,E3,,,,,,,,
{16}
,,,,1-4<5[4:1],,,E8,A7,,,,,,,,
{16}
6V84<5[8:3],,,E2,A2,,,,3h[8:3],,,,,,6<4[8:3],,
{16}
6h[8:3],,,,,,,,7<5[8:1],,7-1-3<4[4:1],,,,,,
{16}
,,,,5-8[8:1],,5-2[8:1],,5p4[8:3],,,,,,,,
||Pre2
{8}
,,1>4[4:1],,4<7[4:1],,7>2[4:1],,
{8}
,,3q8[4:1],3v6[8:1],,,,5x-3>2[4:1],
{8}
1h[4:1],
,,4x-6<7[4:1],8h[4:1],,,1,
{8}
2,3,4/7,{16}6,5,6,,B3/E3,,B6/E7,,B1,,
{8}
2/5,{16}3,4,3,,E7/B7,,E3/B2,,B5,,3h[8:3],,6,,
{8}
,6h[2:1],,4,,5,4h[4:1]/7,,
{16}
6,,{24}4,5,3,{16}4,,,,E1,,,,2/5,,{24}3,4,3,
{16}
4,,1,,4/7,,{24}6,5,6,{16}5,,8,,2/7,,4,5,
||Chorus1
{16}
3,6,2,7,E1/A1/A8/D1f/B8/B1,,,,{24}2x,6x,2x,6x,2x,6x,2xh[4:1],,,E7,B6,B5,
{16}
B4,,3xh[4:1],,{24}E7,B7,B8,{16}B1,,2x,,3/8,,4/7,,6,5,
{16}
6,,{32}D3,D4,D5,D6,{16}8bh[4:1],,,,5,,{32}7b/4b,3x/6x,2x/5x,,{16},,1h[8:1],,
{16}
8h[8:1],,2h[8:1],,7,7,3,3,5,,1b/6b,,,,2h[8:1],,
{16}
4h[8:1],,3h[4:1],,,,5,4,5,4,6,3,7xh[4:1],,{24}E3,B3,B4,
{16}
B5,,6xh[4:1],,{24}E3,B2,B1,{16}B8,,7x,,6/1,,5/2,,3,4,
{16}
3,,{32}D7,D6,D5,D4,{16}1b,,2,2,6,6,4,4,8bh[8:1],,5,5,
{16}
1bh[8:1],,3,3,7bh[8:1],,4h[8:1],,5,,2b/6,,,,3/4,,
{16}
4/5,,5/6,,7h[4:1],,,,{48}A8f,D1/E1,A1,D2/E2,A2,D3/E3,{8}A3,5x/6xh[4:1],,
{16}
2xh[8:1],,5h[8:1],,3xh[4:1],,,,4,,,1/6,,,2/7,,
{16}
8x/3xh[4:1],,,,7xh[8:1],,5xh[8:1],,6xh[4:1],,,,4,,,3/8,,
{16}
2,7,2,6,2,5,,1xh[8:1],,,5,5xh[8:1]/3x,,2,,
{16}
8xh[8:1]/7x,,,5,5/3,,,1/6,,,2/7,,3/8xh[8:1],,,4,
{16}
4xh[8:1]/6x,,7,,2x/1xh[8:1],,,4,4/6,,,3/1,,,2/8,,
{16}
7,1,,6,8,,5,7,5,3,5,8q1[16:19],6bqq3[8:9],,,,
{1}
,
{8}
,,,4q8[4:1],
{8}
2h[4:1],,,5p1[4:1],7h[4:1],,,8,7,6,5/2,{16}3,4,
{8}
3,B6/E7,B2/E3,B8,4/7,{16}6,5,6,,E3/B3,,
{8}
E7/B7,B4,6h[8:3],3,,3h[2:1],,5,
{8}
,4,2/5h[4:1],,3,{24}5,4,6,{16}5,,,,
{8}
E1,,4/7,{24}6,5,6,{16}5,,8,,2/5,,{24}3,4,3,
{16}
4,,1,,{32}2/7,3/6,4/5,,,,,,{16}3,6,2,7,E1/A8/D1f/A1,,,,
{24}
7,3,7,3,7,3,7xh[4:1],,,D3,D4,D5,D6,,,6xh[4:1],,,D3,D2,D1,D8,,,
{16}
7x,,6/8,,1/5,,{24}2,3,4,5/6h[8:1],,,2,3,4,{16}5/8b,,7,1,
{16}
7,,{24}8bx/2bx,3x/7x,6x/4x,{8}5x,2/6,1/7,3/8,{16}7,7,4,4,
{16}
6,,{24}1b/2b,3,4,{16}5,,7h[8:1],,5h[8:1],,6h[4:1],,,,4,5,
{16}
4,5,3,6,{24}2xh[4:1],,,D7,D6,D5,D4,,,3xh[4:1],,,D7,D8,D1,D2,,,
{16}
2x,,3/1,,8/4,,{24}7,6,5,4/3h[8:1],,,7,6,5,{16}4/1b,,2,2,
{16}
6,6,4,4,8bh[8:1],,5,5,2bh[8:1],,4,4,7bh[8:1],,6h[8:1],,
{16}
5,,{32}8bx,1x/7x,2x/6x,3x/5x,{8}4x,3/7,2/8,1/6,4/5h[4:1],,
{16}
Cf,,,,{32}1b,2,3,4,5,6,7,8,1/Cf,2,3,4,5,6,7,8,1,2,3,4,5,6,7,8,
{32}
1/B3/B4f,2,3,4,5,6,7,8,1,2,3,4,5,6,7,8,{16}1h[4:1]/B6/B5f,,,,7,2,6,3,
{16}
8h[8:1],,1b,,7,7,6,6,5h[8:1],,1,1,2,2,3,3,
{16}
4h[8:1],,6b,,5,5,3,4,4,7,5,5,2,4,4,8,
{32}
1bx/5bx,2x/6x,3x/7x,4x/8x,,,,,2/6,,,,2h[8:1]/6,5,4,,{24},,,1/7,,,1h[8:1]/7,6,5,4,,,
{32}
8,1/7,2/6,3/5,4,,,,{24}3/7,,,7,6,5,4,,,2/5,3/6,4/7,{16}5b/8b,,7,7,
{16}
3,3,5,5,1bh[8:1],,5,3,8bh[8:1],,4,6,2hb[8:1],,4h[8:1],,
{16}
3,,D6f/A6/A5/E6/B6/B5,,,,4x,7,3,8,2h[8:1],,7x,1,6,1,
{16}
5,,D4f/A3/A4/E4/B3/B4,,,,6,6,8bh[8:1],,4,4,2bh[8:1],,3,,
{16}
4/5,,D1f/A1/A8/E1/B8/B1,,,,2/6,,3/7,,4/8,,1-6[16:1]b/5-2[16:1]b,,,,Cf,,,,
