&title=千年ノ理
&artist=猫叉Master
&first=0.03
&des=Hanario VS Endbetrag
&lv_5=14
&inote_5=(153)
{4},,,4,
{16}2b/5h[4:1],,,,,,3,,6,,6,5,7,,3-6[8:1],,
{8}3h[4:1],,,,27,1,8,7,
{8}6h[4:1]/3,,,2,53,{24}4,5,4,5p4[8:3],,,3,,,
{4}5h[4:1],,8,{8}4,5,
{8}1h[4:1]/6b,,,{24}8,1,8,{8}1,2,8,7,
{16}62,,3,4,3,,5,,4/7h[4:1],,,,5-1[8:1],,4,,
{8}3,,3-8[8:1]/8,4,5-8[8:1],6,2,3,
{4}4/7h[4:1],1,{8}1s5[8:1]*v3[8:1],28,1b,,
{16}25,,3,4,3,,5,,74,,6,5,6,,4,,
{16}25,,3,4,3-5[8:1],,6,,3V15[4:1],,7,,3,,5,,
{16}6,,6,5,7,,4,,25,,3,4,2,,5,,
{16}26,,2-6[8:1],,,,1-5[8:1],,,,8-4[8:1],,,,6,,
{16}7,,7,8,6,,1,,38,,2,1,3,,8,,
{16}61,,7,8,7-3[8:1],,1,,7V15[4:1],,4,,7,,3,,
{16}2,,6,6,5,,4,,34,,2,,34,,5,,
{16}18,,3,3,4,,25,,47,,25,,1b/8b,,,,
{8}2h[8:1]/8V61[4:1],,2h[8:1],,2h[8:1],8,7/2h[8:1],6q4[4:1],
{16}2h[8:1],,,,2h[8:1],,,,2h[8:1],,5,5,3,6,4V63[4:1],,
{8}7h[8:1],,7h[8:1],,7h[8:1],4,7h[8:1]/3^6[8:1],2,
{4}7-3[8:1]/3,7/2^7[8:1],6q3[6:1]/2,63,
{4}2>6[3:1],5<1[3:1],8>4[3:1],3<6[4:1],
{8}8h[4:1],,,7,68,{16}7,5,6,,3,,
{4}1V35[4:1],1/5V71[4:1],1-3[8:1],5,
{8}7qq5[8:1],5^8[8:1],7,3,4,{24}48,37,26,{8}15,15,
{16}3,5,3,5,2,6,2,7,1,6,2,5,{24}3,4,3,{16}5,2,
{16}8,3,7,4,{24}6,5,6,{16}4,7,1<6[8:1],2,3,4,5/1,,,,
{16}6,5,6,5,7,4,5,4,7,3,4,2,{24}5,1,5,{16}2,4,
{16}1,5,2,6,{24}3,7,3,{16}8,4,1-5[8:1],8,7,6,5/1,,,,
{16}2,4,3,4,1,5,2,5,1,2,3,4,57,4,3,2,
{16}81,7,6,5,42,5,6,7,82,3,4,5,67,5,4,3,
{16}7,5,6,5,8,4,7,4,8,7,6,5,42,5,6,7,
{16}48,3,2,1,3,2,1,8,2,1,8,7,1,8,7,6,
{16}5b/4h[4:1],,,,,,6,,3,,3,4,2,,6-1[8:1],,
{8}6h[4:1],,,,72,8,1,2,
{8}3h[4:1]/6,,,7,46,{24}5,4,5,4V63[8:3],,,6,,,
{4}4h[4:1],,1,{8}5,4,
{8}8h[4:1]/3b,,,{24}1,8,1,{8}8,2,3,4,
{16}37,,6,5,6,,3,,5/2h[4:1],,,,4-8[8:1],,5,,
{8}46,,6-1[8:1]/1,5,4-1[8:1],3,74,6,
{4}5/2h[4:1],8,{8}4-2[8:1]*-8[8:1],,4b,,
{16}1-5[8:1]/7h[8:1],,,,1-3[8:1]/6,,6,,1-5[8:1]/5,,{24}5,6,7,{16}8/1-3[8:1],,8,,
{4}6h[8:1]/1-5[8:1],7h[8:1]/1-3[8:1],{8}5/1-5[8:1],6,7/1,8,
{16}8-4[8:1]/2h[8:1],,,,8-6[8:1]/3,,3,,8-4[8:1]/4,,{24}4,3,2,{16}1/8-6[8:1],,1,,
{4}3h[8:1]/8-4[8:1],2h[8:1]/8-6[8:1],{8}4/8-4[8:1],3,2/8,1,
{4}1bV35[8:1]/5bV71[8:1],,8bV64[8:1]/4bV28[8:1],,
{4}2^7[8:1],2q4[4:1],2,{8}6-1[8:1],6,
{8}6h[4:1],,2,3,48,5,63,7,
{16}18,,,,23,,,,67,,,,4,8,3,7,
{4}2-8[8:1]/6-8[8:1],6/2V48[4:1],{24}2/8^3[8:1],,,8,7,6,{8}5,5,
{8}4/6pp6[8:2],{16},5,{8}6,3<1[24:5],3h[8:2],,,{24}2,3,4,
{4}5/1-3[8:1],5-1[8:1]/1,{8}7-5[8:1]/5,8,2q8[4:1]/7,1,
{8}2h[8:2],,,8^5[8:1],4,{24}4,3,2,{8}1p4[4:1],,
{4}4q1[4:1],1q3[8:3],{8}5,6,7,8,
{8}1V72[4:1],{16},7,{8}1,4,4qq2[8:1]*-7[8:1],,4,,
{8}1qq7[8:1],2^5[8:1],1,2,1,84,{24}8q4[8:1]/4q8[8:1],73,62,51,,,
{4}8^5[8:1]/4^1[8:1],48,{24}8/4^7[8:1],,,8,1,2,43,,,,,,
{4}6-4[8:1]/2-4[8:1],2/6V84[4:1],{24}6/4^7[8:1],,,4,3,2,{8}1,1,
{8}8/2V46[6:1],{16},4,{8}2,7>5[24:5],7h[8:2],,,{24}6,7,8,
{4}1-7[8:1]/5-7[8:1],1-5[8:1]/5,{8}3-1[8:1]/1,4,6q4[4:1]/3,5,
{8}6h[8:2],,,4^1[8:1],8,{24}84,7,6,{8}5v8[8:1],,
{4}8v5[8:1]/5,8/5pp8[8:3],{8}51,2,3,4,
{8}7V16[4:1],{16},1,{8}7,2^7[8:1],2^4[10:1],,,,
{8}5-7[8:1],5-3[8:1],5-8[8:1],5,5,4,{24}48,37,26,15,,,
{16}15,,2-4[12:1],6,2,6,2,,7-5[12:1],4,7,4,7,,3-1[12:1],4,3,4,3,,6-8[12:1],5,6,5,
{16}6,,2-4[12:1],8,1,7,2,,7-5[12:1],4,8,3,7,,3-1[12:1],4,2,5,3,,6-8[12:1],5,7,4,
{16}6,,3,4,2,6,5,7,2,4,1,7,5,8,4,5,
{16}2,4,3,6,5,7,4,5,3,1,2,7,5,6,2,5,
{16}3,4,1,7,8,6,4,5,2,1,3,6,5,7,1,8,
{16}3,,,42,,,75,,,18,,,65,,,12,
{16},,47,,,25,,,36,,25,2,,74,7,,
{16}3,24,,6,57,,34,25,,56,47,,81,27,,6,
{16}5,8,1,4,3,6,5,8,3,5,1,7,{32}2,3,4,5,6,7,8,1,
{4}2b-4[8:30]/7bV15[8:30],,,,
