&title=CLEAR
&artist=坂本真綾
&first=0
&des=一张被封印的谱面
&lv_5=13+
&inote_5=(78)
{1},
{48},
{16},,,,,,,,,,6,5,4,3h[16:3],
,,5,,
6,5,4,3h[16:3],
,,6,,7-2[8:1],,,,3-6[8:1],,,
{16}
,8h[8:2],,,,1p4[8:1],,,,2h[8:2],,,,5p8[8:1],,,,6h[8:2],,,,1,,1,,8pp1[8:1],,7,,6,,,,2qq1[8:1],,3,,4,,,,42,,,57,,,,4/5s1[8:3],,,,,,,,,
(164)
{16},,,,,,,,,,3,7,5b-2[8:1],,,,
6-1[8:1],,,,5-2[8:1],,,,6-1[8:1],,,,
4-1[8:1],,,,5,,5-8[8:1],,,,3-8[8:1],,,,4-7[8:1],,,,4,,
{8}1h[8:2],,8,8qq1[8:2],,3,3,,4>1[16:3],,8,8,,6>3[8:1],,63,,2,4,1,1pp8[8:2],,7,6,5h[8:2],,7,7-4[8:1],,7bV51[16:5]/4bV61[16:5],,,,,,
2,4,3h[8:2],,7-5[8:1],,3,,8-4[8:1],,6,,7,7,,53,5/3-1[8:1],,6,,4-8[8:1],,2,2h[8:2],,1<5[8:2],,5>1[8:2],,1,,5,,3,4,2,4qq3[16:4],,6,6,6h[8:2],,5,5qq4[16:4],,7,,8,8,5,6V83[8:2],,3V16[8:2],,6,,4h[8:2],,5,36,,
4h[8:2]/2,,3,4h[8:2]/6,,5,4p8[8:2]/2,,8p4[8:2],,4-2[16:3]*-7[16:3],,,,,81,18,,7,4/6h[8:2],,1,2,3/5q1[8:2],,1q5[8:2],,5-7[16:3]*-2[16:3],,
,,,81,,2,4-8[8:1],,54,,7p1[8:2],,1q7[8:2],,8,,2b,
{12}3,4,5,6-1[16:3],,8,,2,,3-8[16:3],,1,,7,,6pp2[16:5],,5,,4,,3qq7[16:5],,4,,5,,
{8}6b,6h[8:2],,8b-4[8:1],,8b/1,,5b/3b,,
6b/2,6bpp5[8:2]/2,,5qq5[8:2],5,,
2h[8:2],,,2qq4[8:2],,4pp4[8:2],4,,
7h[8:2],,,7,56,4,7-4[8:1]/3v8[8:1],,7b/3b,,
1,52,3,45,6,78,6pp3[8:3]/1qq4[8:3],,,,,,,
34,5/2-5[24:4],,6-2[24:4],,3-6[24:4],,
7pp3[8:3],8,5,4,4h[8:2],,
1b,3h[8:1],7h[8:1],1bp1[16:4],5,1b<1[8:4],,5,,1<1[8:4],,5,,
1,,6h[8:2],,8,8>3[8:1]/4<7[8:1],,8bqq4[8:3]/4,,4,4,,3,2qq5[8:3],,5/2b,,7,7h[8:2],,5,5>2[8:1]/1<6[8:1],,5/1b-5[8:1],,5-2[8:1],6,7,8bV61[16:4],,1-5[8:1],5-2[8:1],,,,,81,2,34,5>2[8:1],,5/6h[8:2],,8qq7[16:3],,1,2,3,74,7-4[8:1]/4-1[8:1],,7/4b-8[8:1],,1,2,3,5-3[8:1]/4,,6,,7,1,4-6[8:1]/2-5[8:1],,42,,7,6pp7[16:3]/3qq2[16:3],,63,,,5h[8:2]/7h[8:2],,,4h[8:2]/2h[8:2],,,4q1[16:4]/5p8[16:4],4/5,,,,,72,
{16}3,5,1>4[8:1],,,,
{8}7h[8:2]/1b,,8<5[8:1],,8b/2h[8:2],,1,,2/1b,3/8>3[8:1],,6/8b<5[8:1],,8/4b,,3,4/2-8[8:1],,5,,6,5,7h[8:2],,8,
{16}7,8,6,,1,,62,,5q5[16:6],,3V57[16:7],,7b,
&inote_6=
