&title=スロウリー
&artist=明透
&first=0.02
&des=MYOU
&lv_5=13+
&inote_5=(154)
{1},
{8},,,,,5,4-7[8:1],3,
{8}2h[2:1],,,,8x,2-5[8:1],,6h[8:5],
{8},,,,5x,7,8-5[8:1],1,
{8}2h[2:1],,,,4x,2-7[8:1],,4h[8:5],
{8},,,,1x,4,5>2[8:1],6,
{8}7h[2:1],,,,8x,7<4[8:1],,3h[8:5],
{8},,,,4x,2,1>4[8:1],8,
{8}7h[2:1],,,,5x,7>2[8:1],,5h[8:5],
{8},,,,8x,4,3-6[8:1],,
{8}6/3V52[4:1],,,,8x-5[8:1],7,3,4-1[8:1],
{8},,5h[4:1],,2x,6,7-4[8:1],5,
{8}7V58[4:1],,,,2x-5[8:1],3,7,6-1[8:1],
{8},,5h[4:1],,8x,4,5,3,
{8}2h[2:1]/4h[2:1],,,,,2>5[8:1]/4,,6h[8:3],
{8},,7-2[8:1],7,6x,5,4-7[8:1],3,
{8}2/4V25[4:1],,,,7x-2[8:1],6,4,3-6[8:1],
{8},7,7>5[16:5],,Cf,,,,
{8}7x/5xh[2:1],,7,,7,,7,,
{8}6,,6x/4xh[2:1],,6,,6,,
{8}5x/3xh[2:1],,5,,5,,5,,
{8}4,,4x/2xh[2:1],,4,,4,,
{8}1x/3x,,1>4[4:1],,1,,1,,
{8}2,,2x/4x-1[4:1],,2,,2,,
{8}3x/1x,,3<6[4:1],,3,,3,,
{8}4/5p4[8:3],,6,,8xh[2:1],,,,
{24}5x,6x,7x,8x,1x,2x,{8}3xqq4[16:5]/4x,,4x,5<2[4:1],6q2[8:1],7x,
{8},,5xqq7[16:5],,8,1x,2,3x,
{8}1xq5[32:5]/4x>8[32:5],,,,{16}7h[16:3],,,6h[16:3],,,5x,,
{8}5bw1[8:1],,5b,,3q7[8:1]/7<4[8:1],,,,
{24}8x>7[4:1],1x,2x,3x,4x,5x,{8}8x,,1,1p3[16:3],,5x<1[16:3],
{8},,2x,3,4,5x/6x,7,5x/8x,
{8}8x/5xh[4:1],,7,6,5/4-7[8:1],{16},3,4,,2x,,
{8}6v1[8:1]/2v5[8:1],62,C,,8xh[8:1],7xh[8:1],6xh[8:1],5xh[8:1],
{24}8x,1x,2x,3x,4x,5x,{8}6xqq7[16:5]/3x,,8x,1>6[4:1],2q6[8:1],3x,
{8},,2xqq4[16:5],,4,5x,6,7x,
{8}5xq1[32:5]/8x<4[32:5],,,,{16}2h[16:3],,,3h[16:3],,,4x,,
{8}4bw8[8:1],,4b,,2qq8[8:1]/6qq4[8:1],,,,
{24}1xp4[16:3],2x,3x,4x,5x,6x,{8}1x,,3,3qq8[8:3],,7xh[4:1],,,6x,5,2,4x/3x,6,7x/5x,
{16}7x/5xh[4:1],,,,8,,7,,6/4-8[8:1],,,2,4,,3,,
{16}5-1[8:1]/7,,,7,5,,6,,5v8[8:1]/3v8[8:1],,62,,,,,,
{8}7h[2:1]/1,,,,5,5-8[16:3],,4h[8:3],,,1<3[8:3],,,,,,
{8}2h[2:1],,,,4,4>1[16:3],,6h[8:3],,,8w4[8:2],,,,,,
{8}5h[2:1]/3,,,,6,6>3[16:3],,7h[8:3],,,2qq5[8:4],,,,,,
{8}8h[2:1],,,,1,1<6[16:3],,5h[8:3],,,4V27[16:5]*V61[16:5],,,,,,
{8}1x/8xh[2:1],,1,,2,,2,,
{8}3,,3x/5xh[2:1],,4,,4,,
{8}5x/7xh[2:1],,5,,6,,6,,
{8}7,,7x/1xh[2:1],,8,,8,,
{8}8x/1x,,8>3[4:1],,7,,7,,
{8}6,,6x/4x-8[4:1],,5,,5,,
{8}1x/4x,,4-8[4:1],,3,,3,,
{8}1q6[4:1]/2,,2,,1xh[2:1],,,,
{24}4xqq3[32:5],3x,2x,1x,8x,7x,{8}6xpp5[16:5],,5x,4>6[4:1],3p6[8:1],2x,
{8},,4x<7[8:1],3,2pp4[8:1],1x,8,7x,
{8}6x<1[32:5]/2xp4[32:5],,,,{16}2h[16:3],,,3h[16:3],,,4x,,
{8}4b<8[8:1]*>1[8:1],,4b,,6q2[8:1]/2q6[8:1],,,,
{24}1x<2[4:1],8x,7x,6x,5x,4x,{8}1x,,8,7q5[16:3],6,5x<2[16:3],
{8},,4xqq4[32:7],4,5,6x,7,8x/5x,
{8}8x/5xh[4:1],,7,56,5/4q8[8:1],{16},2,4,,2x,,
{8}3v1[8:1]/7v5[8:1],37,C,,2xh[8:1],3xh[8:1],4xh[8:1],5xh[8:1],
{24}1xqq8[32:5],8x,7x,6x,5x,4x,{8}3xpp1[32:11],,1x,8<2[4:1],7p2[8:1],6x,
{8},,7x>2[8:1],6,5pp7[8:1],4x,3,2x,
{8}1x>6[32:5]/5xp8[32:5],,,,{16}7h[16:3],,,6h[16:3],,,5x,,
{8}5b-2[8:1]*V71[8:1],,5b,,8V61[32:5]/4V25[32:5],,,,
{24}8xV25[32:7],7x,6x,5x,4x,3x,{8}8x,,6,6pp2[8:3],,4xh[4:1],,,4x-8[8:1],3,7-4[8:1],6x,1,2x,
{16}5x/3xh[4:1],,,,8,,7,,6/4q8[8:1],,,2,4,,3,,
{16}5p1[8:1]/7,,,7,5,,6,,5p1[8:1]/3q7[8:1],,62,,,,,,
{8}8xw4[8:1],,8x,,26,7,46,5,
{8}2x-4[8:1]/4x-8[8:1],,2x/4x,,57,6,78,1,
{16}2h[4:1]/8,,,,7,,6,,3/5>2[8:1],,,6,5,,7,,
{16}6/4<7[8:1],,,3,4,,2,,3v8[8:1]/5v8[8:1],,26,,,,,,
{8}1x-5[8:1]/7x-5[8:1],,1x/7x,,34,2,46,7,
{8}1xw5[8:1]/8x,,1x,,37,8,16,2,
{16}3h[4:1]/4,,,,8,,7,,5/6-2[8:1],,,7,6,,7,,
{16}4/3-7[8:1],,,2,3,,2,,5-2[8:1]/6-1[8:1],,47,,,,,,
{8}4x/8xh[8:7],,,,E6,E8,E2,Ch[1:1]f,
{8},,,,8,7x,6,5b,
