&title=ultimate breaKING
&artist=『HaremKingdom - ハーレムキングダム』オープニング
&first=0.00
&lv_1=3
&lv_2=4
&lv_3=7
&lv_4=9
&lv_5=11+
&des_1=Tane
&des_2=Tane
&des_3=Tane
&des_4=Tane
&des_5=Tane
&des=Tane
&inote_1=
(132){4},,,,
{16}5h[2:1],,,,
,,,,
,,,,
,,,,
{16}4h[2:1],,,,
,,,,
,,,,
,,,,
{16}1h[2:1],,,,
,,,,
,,,,
,,,,
{16}8b,,,,
,,,,
1b,,,,
,,,,
{8}4-2[4:1],,,,
,,,,
{8}5-7[4:1],,,,
,,,,
{8}24,,,,
3,,,,
{8}65,,,,
3,,,,
{8}1-3[4:1],,,,
,,,,
{8}8-6[4:1],,,,
,,,,
{8}24,,,,
6,,,,
{8}1,,,,
3,,,,
{4}5-1[2:1],,,,
{4}4-8[2:1],,,,
{4}3^8[2:1],,,,
{16}7b,,,,
,,,,
2b,,,,
,,,,
{8}6,,,,
6,,,,
{8}6,,,,
7,,,,
{8}3h[4:1],,,,
6h[4:1],,,,
{8}3h[4:1],,,,
4b-8[8:1],,,,
{8}3,,,,
3,,,,
{8}3,,,,
2,,,,
{8}1h[4:1],,,,
6h[4:1],,,,
{8}45,,,,
27,,,,
{8}3-8[2:1],,,,
,,,,
{8}4,,,,
6,,,,
{8}6-1[2:1],,,,
,,,,
{8}5,,,,
3,,,,
{8}2,,,,
7,,,,
{8}12,,,,
78,,,,
{8}1,,,,
2,,,,
{8}3,,,,
4,,,,
{8}5-8[2:1],,,,
,,,,
{8}4-2[4:1],,,,
,,,,
{8}5-7[4:1],,,,
,,,,
{8}24,,,,
3,,,,
{8}65,,,,
3,,,,
{8}5-7[4:1],,,,
,,,,
{8}4-2[4:1],,,,
,,,,
{16}5<1[2:1],,,,
,,,,
,,,,
,,,,
{8}2,,,,
7,,,,
{8}1,,,,
8,,,,
{8}2,,,,
7,,,,
{8}2,,,,
2,,,,
{8}7,,,,
7,,,,
{8}1-3[4:1],,,,
,,,,
{8}8-6[4:1],,,,
,,,,
{8}31,,,,
2,,,,
{8}78,,,,
2,,,,
{4}2^5[4:3],,,,
{4}7,,,,
{4}7^5[4:2],,,,
{16}1b,,,,
,,,,
8b,,,,
,,,,
{16}8h[8:4],,,,
,,,,
,,,,
,,8b,,
{1},,,,,,,,,,,,,,,,E
&inote_2=
(132){4},,,,
{16}5h[2:1],,,,
,,,,
,,,,
,,,,
{16}4h[2:1],,,,
,,,,
,,,,
,,,,
{16}1h[2:1],,,,
,,,,
,,,,
,,,,
{16}8b,,,,
,,,,
1b,,,,
,,,,
{8}4-2[4:1],,,,
,,,,
{8}5-7[4:1],,,,
,,,,
{8}24,,,,
3,,,,
{8}65,,,,
3,,,,
{8}1-3[4:1],,,,
,,,,
{8}8-6[4:1],,,,
,,,,
{8}24,,,,
6,,,,
{8}1,,,,
3,,,,
{4}5-1[2:1],,,,
{4}4-8[2:1],,,,
{4}3^8[2:1],,,,
{16}7b,,,,
,,,,
2b,,,,
,,,,
{8}6,,,,
6,,,,
{8}6,,6,,
7,,,,
{8}3h[4:1],,,,
6h[4:1],,,,
{8}3h[4:1],,,,
4b-8[8:1],,,,
{8}3,,,,
3,,,,
{8}3,,3,,
2,,,,
{8}1h[4:1],,,,
6h[4:1],,,,
{8}45,,,,
27,,,,
{8}3-8[2:1],,,,
,,,,
{8}4,,5,,
6,,,,
{8}6-1[2:1],,,,
,,,,
{8}5,,4,,
3,,,,
{8}2,,,,
7,,,,
{8}12,,,,
78,,,,
{8}1,,,,
2,,,,
{8}3,,,,
4,,,,
{8}5-8[2:1],,,,
,,,,
{8}4-2[4:1],,,,
,,,,
{8}5-7[4:1],,,,
,,,,
{8}24,,,,
3,,,,
{8}65,,,,
3,,,,
{8}5-7[4:1],,,,
,,,,
{8}4-2[4:1],,,,
,,,,
{16}5<1[2:1],,,,
,,,,
,,,,
,,,,
{8}2,,,,
7,,,,
{8}1,,1,,
8,,8,,
{8}2,,2,,
7,,7,,
{8}2,,,,
2,,,,
{8}7,,,,
7,,,,
{8}1-3[4:1],,,,
,,,,
{8}8-6[4:1],,,,
,,,,
{8}31,,,,
2,,2,,
{8}78,,,,
2,,2,,
{4}2^5[4:3],,,,
{4}7,,,,
{4}7^5[4:2],,,,
{16}1b,,,,
,,,,
8b,,,,
,,,,
{16}8h[8:4],,,,
,,,,
,,,,
,,8b,,
{1},,,,,,,,,,,,,,,,E
&inote_3=
(132){4},,,,
{16}5h[2:1],,,,
,,,,
,,,,
,,,,
{16}4h[2:1],,,,
,,,,
,,,,
,,,,
{16}1h[2:1],,,,
,,,,
,,,,
,,,,
{16}8b,,,7b,
,,6b,,
1b,,,2b,
,,3b,,
{8}4-2[4:1],,,,
5,,5,,
{8}5-7[4:1],,,,
4,,4,,
{8}24,,57,,
3,,3,,
{8}65,,34,,
3,,3,,
{8}1-3[4:1],,,,
8,,8,,
{8}8-6[4:1],,,,
1,,1,,
{8}24,,57,,
6,,6,,
{8}1,,2,,
3,,4,,
{4}5-1[2:1],,,,
{4}4-8[2:1],,,,
{4}3^8[2:1],,,,
{16}7b,,,6b,
,,5b,,
2b,,,3b,
,,4b,,
{8}6,,57,,
6,5,6,,
{8}6,5,6,,
7,5,6,,
{8}3h[4:1],,5,,
6h[4:1],,4,,
{8}3h[4:1],,4,,
4b-8[8:1],,,,
{8}3,,42,,
3,4,3,,
{8}3,4,3,,
2,4,3,,
{8}1h[4:1],,4,,
6h[4:1],,5,,
{8}45,,45,,
27,,27,,
{8}3-8[2:1],,,,
,,,,
{8}3-8[2:1],,4,,
5,,,,
{8}6-1[2:1],,,,
,,,,
{8}6-1[2:1],,5,,
4,,,,
{8}2,,,,
7,,,,
{8}12,,,,
78,,,,
{8}1,,8,,
2,,7,,
{8}3,,6,,
4,,5,,
{8}4-1[2:1]/5-8[2:1],,,,
,,,,
{8}4-2[4:1],,,,
5,,5,,
{8}5-7[4:1],,,,
4,,4,,
{8}24,,57,,
3,4,3,,
{8}65,,34,,
3,4,3,,
{8}5-7[4:1],,,,
4,,4,,
{8}4-2[4:1],,,,
5,,5,,
{16}5<1[2:1],,,,
,,,,
,,,,
,,,,
{8}2,,12,,
7,,78,,
{8}1,,1h[4:1],,
8,,8h[8:1],,
{8}2,,2h[4:1],,
7,,7h[8:1],,
{8}2,,32,,
2,,2,,
{8}7,,67,,
7,,7,,
{8}1-3[4:1],,,,
8,,8,,
{8}8-6[4:1],,,,
1,,1,,
{8}31,,86,,
2,1,2,,
{8}78,,21,,
2,1,2,,
{4}2^5[4:3],,,,
{4}7^4[4:3],,,,
{4}2^5[4:2],,,,
{16}1b,,,2b,
,,3b,,
8b,,,7b,
,,6b,,
{16}8h[8:7],,,,
,,,,
,,,,
,,7b,,
{1},,,,,,,,,,,,,,,,E
&inote_4=
(132){4},,,,
{16}4/5h[8:3],,,,
,,3,,
3-1[8:1],,,,
,,,,
{16}5/4h[8:3],,,,
,,6,,
6-8[8:1],,,,
,,,,
{16}1/8h[8:3],,,,
,,2,,
2-4[8:1],,,,
,,,,
{16}4/8b,,,4/7b,
,,6b/4,,
5/1b,,,5/2b,
,,3b/5,,
{8}4-2[8:1],,6,,
5,5,56,,
{8}5-7[8:1],,3,,
4,4,43,,
{8}24,,57,,
3,3,4,,
{8}6,5,3,4,
6,5,3,,
{8}1-3[8:1],,7,,
8,8,87,,
{8}8-6[8:1],,2,,
1,1,12,,
{8}24,,57,,
6,6,5,,
{16},,1,,
8,,2,2,
,,6,,
5,,4,,
{4}3>6[2:1],,,,
{4}6<3[2:1],,,,
{4}2>7[2:1],,,,
{16}4/8b,,,4/7b,
,,3/6b,,
5/1b,,,5/2b,
,,6/3b,,
{8}6,,57,,
6,6,57,,
{8}6,6,5/7h[4:1],,
6,6,57,4,
{8}3h[4:1],,5,5,
6h[4:1],,4,4,
{8}3h[4:1],,4,4,
4b-1[8:1]*-7[8:1],,,,
{8}3,3,52,,
3,3,52,4,
{8}3,3,5/2h[4:1],,
4,4,3,25,
{8}1h[4:1],,4,4,
6h[4:1],,5,5,
{8}45,45,36,36,
2-5[8:1]/7-4[8:1],,,,
{8}3-8[8:1],,4,,
3-8[8:1],,4,,
{8}3-8[8:1],,5,,
3-8[8:1],,5,,
{8}6-1[8:1],,5,,
6-1[8:1],,5,,
{8}6-1[8:1],,4,,
6-1[8:1],,4,,
{8}2>6[4:1],,,,
7<3[4:1],,,,
{8}2-6[4:1],,,,
7-3[4:1],,,,
{8}1,2,8,7,
2,3,7,6,
{8}3h[4:1],,4h[4:1],,
5h[4:1],,6h[4:1],,
{8}8p1[2:1],,,,
,,,,
{8}5-2[8:1]/6,,7,,
6,5,47,3,
{8}4-7[8:1],,2,,
43,43,25,,
{8}24,,57,,
2,3,7,6,
{8}3,4,6,5,
45,36,45,,
{8}4-7[8:1]/3,,2,,
3,4,52,6,
{8}5-2[8:1],,7,,
56,56,74,8<3[4:3],
{16},,,,
,,,,
,,,,
,,,,
{8}2h[4:1],,1h[4:1],,
8,8,18,,
{8}1>5[4:1],,8h[8:1],,
8<4[4:1],,1h[8:1],,
{8}2>6[4:1],,8h[8:1],,
7<3[4:1],,1h[8:1],,
{8}2,2,32,,
2,3,2,,
{8}7,7,67,,
7,6,7,,
{8}8-3[8:1]/7,,6,,
7,8,16,2,
{8}1-6[8:1],,3,,
12,12,38,,
{8}57,,24,,
34,34,25,,
{8}6h[4:1],,5h[4:1],,
4h[4:1],,3h[4:1],,
{4}2<4[4:3],,,,
{4}1>6[4:3],,,,
{4}7<3[4:2],,,,
{16}1b,,,3b/5b,
,,4b/6b,,
8b,,,4b/6b,
,,3b/5b,,
{16}1h[8:7],,,,
,,,,
,,,,
,,7b^4[4:9],,
{1},,,,,,,,,,,,,,,,E
&inote_5=
(132){4},,,,
{16}4qq8[8:5]/5h[4:3],,,,
,,,,
,,,,
{16},,,,
2qq5[8:5]/6h[4:3],,,,
,,,,
{16},,,,
,,,,
8pp5[8:5]/4h[4:3],,,,
{16},,,,
,,,,
,,,,
{16}1b/4h[16:3],,,3b,
,,5b,,
5h[16:3]/4b,,,6b,
,,8b,,
{4}1^3[8:1]/8q4[8:1],18,{8}16,5,61,7-4[8:1],
{16}8,,1,,
2,2,,34,
,,6,,
4/5-7[8:1],,,,
{4}5-2[8:1],56,{8}25,3,47,6,
{8}25,3,47,6,
3-8[8:1]/4-8[8:1],25,,,
{4}8^6[8:1]/1p5[8:1],81,{8}83,4,38,2-5[8:1],
{16}1,,8,,
7,7,,65,
,,3,,
5/4,,,,
{16}6,5,6,,
3,,2,4,
,7,5,,
1,,,,
{16},,8,,
1,,7,7,
,,3h[8:1],,
5pp4[8:7],4,5,4,
{4}5,,,,
{8}3qq8[8:5]/4h[8:1],,
{16}6h[8:1],,,5,
,5,5,,
7h[8:1],,,,
{8}6pp1[8:5]/5h[8:1],,
{16}3h[8:1],,,4,
,4,4,,
2h[8:1],,,,
{16}1b/4h[16:3],,,3b,
,,4b/6b,,
8b/5h[16:3],,,6b,
,,3b/5b,,
{16}25,,3,,
25,,,25,
,5,4,,
25,,,,
{16}5,4,5h[8:1],,
2,,3,,
2,5h[16:3],4,,
3,,25,,
{16},,1h[8:1],,
6,8,6,1h[16:3],
,,4,,
5,,6h[8:5],,
{8},5,4,3,
5b-2[8:1]*-8[8:1],,5b,,
{16}47,,6,,
7,4,6,4,
,4,5,,
47,,,,
{16}7,4,6,5,
7,,7,4,
,4,7,,
5,,47,,
{16},,8,3,
1,3,8,2h[16:5],
,,1,,
7,,,,
{16}27,,27,,
36,,36,,
38,,16,,
2,4,3,,
{8}3-8[8:1]/4,,6,,
3-8[8:1]/4,,6,7,
{8}3-8[8:1],6,5,4,
3-8[8:1],4,5,6,
{8}6-1[8:1]/5,,3,,
6-1[8:1]/5,,3,2,
{8}6-1[8:1],3,4,5,
6-1[8:1],5,4,3,
{8}2>6[4:1],,8,8,
7<3[4:1],,1,1,
{8}2-6[8:1],,8,7-3[8:1],
,2,1,,
{16}1,,2,,7,,3,3,
,,6,,5,,4,,
{16}2,7,2,7,
2,7,2,7,
3,6,3,6,
4,5,3,6,
{16}4,5,3,6,
,36,,27,
2h[4:1]/7h[4:1],,,,
,,,,
{8}3-1[8:1]/8-4[8:1],,38,,
15,2-6[8:1],15,7h[16:3],
{16},,7,,
8,8,,17,
,,26,,
4-6[8:1]/3,,,,
{8}2/4-1[8:1],,45,,
25,3,47,6,
{8}24,3,57,6,
4-1[8:1]/8-5[8:1],37,48,,
{8}6-8[8:1]/1-5[8:1],,61,,
84,7-3[8:1],84,2h[16:3],
{16},,2,,
1,1,,82,
,,73,,
5<3[4:1]/6,,8h[8:2],,
{16},,,,
7,,,6,
6,,45,,
3,,,,
{8}45,8,45,1,
{16}4,5,3,6,
2,7,1,8,
{4}1>6[4:1],8h[16:3],{8}8,17,3,24,
{16}6,,6,46,
,3,35,,
,,26,,
4,,57,,
{16}8,3,8,3,
8,,2,8,
,7,1,,
2,,,,
{16}1,6,1,6,
1,,7,1h[16:5],
,,6,,
5,,,,
{4}2^5[8:1]/6^1[8:1],26,{8}48,7-3[8:1],48,2-6[8:1],
{16},,27,,
8,8,,5/7-4[8:1],
,,4,,
2,,,,
{16}2h[8:1]/4h[8:1],,,,
5h[8:1]/7h[8:1],,,8,
,8,1,,
27,,,,
{16},,8,,
7,,6,6,
,,5,,
4,5,3,6,
{4}2bs6[8:4]/7b,8h[16:3],7h[16:2],{8}8,8,
{4}7z3[8:4]/3h[8:1],1h[16:3],2h[16:2],{8}1,1,
{4}1s5[8:4]/4h[8:1],6h[16:3],7h[16:2],{8}8,8,
{16}3b/7b,,,1b/5b,
,,3b/7b,,
4b/8b,,,2b/6b,
,,4b/8b,,
{16}18,,1,8,
2,7,3,6,
4,,5,,
6,,7b^4[4:9]/1h[4:11],,
{1},,,,,,,,,,,,,,,,E
